  0
SECTION
  2
HEADER
  9
$ACADVER
  1
AC1032
  9
$ACADMAINTVER
 90
      174
  9
$DWGCODEPAGE
  3
ANSI_1252
  9
$LASTSAVEDBY
  1
jgarman
  9
$REQUIREDVERSIONS
160
                 0
  9
$INSBASE
 10
0.0
 20
0.0
 30
0.0
  9
$EXTMIN
 10
21.75276120319743
 20
-20.58207705814676
 30
0.0
  9
$EXTMAX
 10
51.73690210668307
 20
10.62372867886734
 30
0.0
  9
$LIMMIN
 10
0.0
 20
0.0
  9
$LIMMAX
 10
12.0
 20
9.0
  9
$ORTHOMODE
 70
     0
  9
$REGENMODE
 70
     1
  9
$FILLMODE
 70
     1
  9
$QTEXTMODE
 70
     0
  9
$MIRRTEXT
 70
     0
  9
$LTSCALE
 40
1.0
  9
$ATTMODE
 70
     1
  9
$TEXTSIZE
 40
0.2
  9
$TRACEWID
 40
0.05
  9
$TEXTSTYLE
  7
STANDARD
  9
$CLAYER
  8
0
  9
$CELTYPE
  6
Continuous
  9
$CECOLOR
 62
   256
  9
$CELTSCALE
 40
1.0
  9
$DISPSILH
 70
     0
  9
$DIMSCALE
 40
1.0
  9
$DIMASZ
 40
0.18
  9
$DIMEXO
 40
0.0625
  9
$DIMDLI
 40
0.38
  9
$DIMRND
 40
0.0
  9
$DIMDLE
 40
0.0
  9
$DIMEXE
 40
0.18
  9
$DIMTP
 40
0.0
  9
$DIMTM
 40
0.0
  9
$DIMTXT
 40
0.18
  9
$DIMCEN
 40
0.09
  9
$DIMTSZ
 40
0.0
  9
$DIMTOL
 70
     0
  9
$DIMLIM
 70
     0
  9
$DIMTIH
 70
     1
  9
$DIMTOH
 70
     1
  9
$DIMSE1
 70
     0
  9
$DIMSE2
 70
     0
  9
$DIMTAD
 70
     0
  9
$DIMZIN
 70
     0
  9
$DIMBLK
  1

  9
$DIMASO
 70
     1
  9
$DIMSHO
 70
     1
  9
$DIMPOST
  1

  9
$DIMAPOST
  1

  9
$DIMALT
 70
     0
  9
$DIMALTD
 70
     2
  9
$DIMALTF
 40
25.4
  9
$DIMLFAC
 40
1.0
  9
$DIMTOFL
 70
     0
  9
$DIMTVP
 40
0.0
  9
$DIMTIX
 70
     0
  9
$DIMSOXD
 70
     0
  9
$DIMSAH
 70
     0
  9
$DIMBLK1
  1

  9
$DIMBLK2
  1

  9
$DIMSTYLE
  2
Standard
  9
$DIMCLRD
 70
     0
  9
$DIMCLRE
 70
     0
  9
$DIMCLRT
 70
     0
  9
$DIMTFAC
 40
1.0
  9
$DIMGAP
 40
0.09
  9
$DIMJUST
 70
     0
  9
$DIMSD1
 70
     0
  9
$DIMSD2
 70
     0
  9
$DIMTOLJ
 70
     1
  9
$DIMTZIN
 70
     0
  9
$DIMALTZ
 70
     0
  9
$DIMALTTZ
 70
     0
  9
$DIMUPT
 70
     0
  9
$DIMDEC
 70
     4
  9
$DIMTDEC
 70
     4
  9
$DIMALTU
 70
     2
  9
$DIMALTTD
 70
     2
  9
$DIMTXSTY
  7
STANDARD
  9
$DIMAUNIT
 70
     0
  9
$DIMADEC
 70
     0
  9
$DIMALTRND
 40
0.0
  9
$DIMAZIN
 70
     0
  9
$DIMDSEP
 70
    46
  9
$DIMATFIT
 70
     3
  9
$DIMFRAC
 70
     0
  9
$DIMLDRBLK
  1

  9
$DIMLUNIT
 70
     2
  9
$DIMLWD
 70
    -2
  9
$DIMLWE
 70
    -2
  9
$DIMTMOVE
 70
     0
  9
$DIMFXL
 40
1.0
  9
$DIMFXLON
 70
     0
  9
$DIMJOGANG
 40
0.7853981633974483
  9
$DIMTFILL
 70
     0
  9
$DIMTFILLCLR
 70
     0
  9
$DIMARCSYM
 70
     0
  9
$DIMLTYPE
  6

  9
$DIMLTEX1
  6

  9
$DIMLTEX2
  6

  9
$DIMTXTDIRECTION
 70
     0
  9
$LUNITS
 70
     2
  9
$LUPREC
 70
     4
  9
$SKETCHINC
 40
0.1
  9
$FILLETRAD
 40
0.25
  9
$AUNITS
 70
     0
  9
$AUPREC
 70
     0
  9
$MENU
  1
.
  9
$ELEVATION
 40
0.0
  9
$PELEVATION
 40
0.0
  9
$THICKNESS
 40
0.0
  9
$LIMCHECK
 70
     0
  9
$CHAMFERA
 40
0.0
  9
$CHAMFERB
 40
0.0
  9
$CHAMFERC
 40
0.0
  9
$CHAMFERD
 40
0.0
  9
$SKPOLY
 70
     0
  9
$TDCREATE
 40
2459604.631932871
  9
$TDUCREATE
 40
2459604.965266204
  9
$TDUPDATE
 40
2459613.552164352
  9
$TDUUPDATE
 40
2459613.885497685
  9
$TDINDWG
 40
0.1660995370
  9
$TDUSRTIMER
 40
0.1660995370
  9
$USRTIMER
 70
     1
  9
$ANGBASE
 50
0.0
  9
$ANGDIR
 70
     0
  9
$PDMODE
 70
     0
  9
$PDSIZE
 40
0.0
  9
$PLINEWID
 40
0.0
  9
$SPLFRAME
 70
     0
  9
$SPLINETYPE
 70
     6
  9
$SPLINESEGS
 70
     8
  9
$HANDSEED
  5
10502
  9
$SURFTAB1
 70
     6
  9
$SURFTAB2
 70
     6
  9
$SURFTYPE
 70
     6
  9
$SURFU
 70
     6
  9
$SURFV
 70
     6
  9
$UCSBASE
  2

  9
$UCSNAME
  2

  9
$UCSORG
 10
0.0
 20
0.0
 30
0.0
  9
$UCSXDIR
 10
1.0
 20
0.0
 30
0.0
  9
$UCSYDIR
 10
0.0
 20
1.0
 30
0.0
  9
$UCSORTHOREF
  2

  9
$UCSORTHOVIEW
 70
     0
  9
$UCSORGTOP
 10
0.0
 20
0.0
 30
0.0
  9
$UCSORGBOTTOM
 10
0.0
 20
0.0
 30
0.0
  9
$UCSORGLEFT
 10
0.0
 20
0.0
 30
0.0
  9
$UCSORGRIGHT
 10
0.0
 20
0.0
 30
0.0
  9
$UCSORGFRONT
 10
0.0
 20
0.0
 30
0.0
  9
$UCSORGBACK
 10
0.0
 20
0.0
 30
0.0
  9
$PUCSBASE
  2

  9
$PUCSNAME
  2

  9
$PUCSORG
 10
0.0
 20
0.0
 30
0.0
  9
$PUCSXDIR
 10
1.0
 20
0.0
 30
0.0
  9
$PUCSYDIR
 10
0.0
 20
1.0
 30
0.0
  9
$PUCSORTHOREF
  2

  9
$PUCSORTHOVIEW
 70
     0
  9
$PUCSORGTOP
 10
0.0
 20
0.0
 30
0.0
  9
$PUCSORGBOTTOM
 10
0.0
 20
0.0
 30
0.0
  9
$PUCSORGLEFT
 10
0.0
 20
0.0
 30
0.0
  9
$PUCSORGRIGHT
 10
0.0
 20
0.0
 30
0.0
  9
$PUCSORGFRONT
 10
0.0
 20
0.0
 30
0.0
  9
$PUCSORGBACK
 10
0.0
 20
0.0
 30
0.0
  9
$USERI1
 70
     0
  9
$USERI2
 70
     0
  9
$USERI3
 70
     0
  9
$USERI4
 70
     0
  9
$USERI5
 70
     0
  9
$USERR1
 40
0.0
  9
$USERR2
 40
0.0
  9
$USERR3
 40
0.0
  9
$USERR4
 40
0.0
  9
$USERR5
 40
0.0
  9
$WORLDVIEW
 70
     1
  9
$SHADEDGE
 70
     3
  9
$SHADEDIF
 70
    70
  9
$TILEMODE
 70
     1
  9
$MAXACTVP
 70
    64
  9
$PINSBASE
 10
0.0
 20
0.0
 30
0.0
  9
$PLIMCHECK
 70
     0
  9
$PEXTMIN
 10
1.000000000000000E+20
 20
1.000000000000000E+20
 30
1.000000000000000E+20
  9
$PEXTMAX
 10
-1.000000000000000E+20
 20
-1.000000000000000E+20
 30
-1.000000000000000E+20
  9
$PLIMMIN
 10
0.0
 20
0.0
  9
$PLIMMAX
 10
12.0
 20
9.0
  9
$UNITMODE
 70
     0
  9
$VISRETAIN
 70
     1
  9
$PLINEGEN
 70
     0
  9
$PSLTSCALE
 70
     1
  9
$TREEDEPTH
 70
  3020
  9
$CMLSTYLE
  2
Standard
  9
$CMLJUST
 70
     0
  9
$CMLSCALE
 40
1.0
  9
$PROXYGRAPHICS
 70
     1
  9
$MEASUREMENT
 70
     0
  9
$CELWEIGHT
370
    -1
  9
$ENDCAPS
280
     0
  9
$JOINSTYLE
280
     0
  9
$LWDISPLAY
290
     0
  9
$INSUNITS
 70
     1
  9
$HYPERLINKBASE
  1

  9
$STYLESHEET
  1

  9
$XEDIT
290
     1
  9
$CEPSNTYPE
380
     0
  9
$PSTYLEMODE
290
     1
  9
$FINGERPRINTGUID
  2
{77FCB219-1E92-7844-BB93-C5AE7F7369F7}
  9
$VERSIONGUID
  2
{C23CAF59-F59F-404F-A677-630E5D8E04C7}
  9
$EXTNAMES
290
     1
  9
$PSVPSCALE
 40
0.0
  9
$OLESTARTUP
290
     0
  9
$SORTENTS
280
   127
  9
$INDEXCTL
280
     0
  9
$HIDETEXT
280
     0
  9
$XCLIPFRAME
280
     2
  9
$HALOGAP
280
     0
  9
$OBSCOLOR
 70
   257
  9
$OBSLTYPE
280
     0
  9
$INTERSECTIONDISPLAY
280
     0
  9
$INTERSECTIONCOLOR
 70
   257
  9
$DIMASSOC
280
     1
  9
$PROJECTNAME
  1

  9
$CAMERADISPLAY
290
     0
  9
$LENSLENGTH
 40
50.0
  9
$CAMERAHEIGHT
 40
0.0
  9
$STEPSPERSEC
 40
2.0
  9
$STEPSIZE
 40
6.0
  9
$3DDWFPREC
 40
2.0
  9
$PSOLWIDTH
 40
0.25
  9
$PSOLHEIGHT
 40
4.0
  9
$LOFTANG1
 40
1.570796326794896
  9
$LOFTANG2
 40
1.570796326794896
  9
$LOFTMAG1
 40
0.0
  9
$LOFTMAG2
 40
0.0
  9
$LOFTPARAM
 70
     7
  9
$LOFTNORMALS
280
     1
  9
$LATITUDE
 40
37.795
  9
$LONGITUDE
 40
-122.394
  9
$NORTHDIRECTION
 40
0.0
  9
$TIMEZONE
 70
 -8000
  9
$LIGHTGLYPHDISPLAY
280
     1
  9
$TILEMODELIGHTSYNCH
280
     1
  9
$CMATERIAL
347
10005
  9
$SOLIDHIST
280
     0
  9
$SHOWHIST
280
     1
  9
$DWFFRAME
280
     2
  9
$DGNFRAME
280
     0
  9
$REALWORLDSCALE
290
     1
  9
$INTERFERECOLOR
 62
     1
  9
$INTERFEREOBJVS
345
10027
  9
$INTERFEREVPVS
346
10024
  9
$CSHADOW
280
     0
  9
$SHADOWPLANELOCATION
 40
0.0
  0
ENDSEC
  0
SECTION
  2
CLASSES
  0
CLASS
  1
ACDBDICTIONARYWDFLT
  2
AcDbDictionaryWithDefault
  3
ObjectDBX Classes
 90
        0
 91
        1
280
     0
281
     0
  0
CLASS
  1
MATERIAL
  2
AcDbMaterial
  3
ObjectDBX Classes
 90
     1153
 91
        3
280
     0
281
     0
  0
CLASS
  1
VISUALSTYLE
  2
AcDbVisualStyle
  3
ObjectDBX Classes
 90
     4095
 91
       24
280
     0
281
     0
  0
CLASS
  1
TABLESTYLE
  2
AcDbTableStyle
  3
ObjectDBX Classes
 90
     4095
 91
        1
280
     0
281
     0
  0
CLASS
  1
SCALE
  2
AcDbScale
  3
ObjectDBX Classes
 90
     1153
 91
       17
280
     0
281
     0
  0
CLASS
  1
MLEADERSTYLE
  2
AcDbMLeaderStyle
  3
ACDB_MLEADERSTYLE_CLASS
 90
     4095
 91
        1
280
     0
281
     0
  0
CLASS
  1
ACDBSECTIONVIEWSTYLE
  2
AcDbSectionViewStyle
  3
ObjectDBX Classes
 90
     1025
 91
        1
280
     0
281
     0
  0
CLASS
  1
ACDBDETAILVIEWSTYLE
  2
AcDbDetailViewStyle
  3
ObjectDBX Classes
 90
     1025
 91
        1
280
     0
281
     0
  0
CLASS
  1
SORTENTSTABLE
  2
AcDbSortentsTable
  3
ObjectDBX Classes
 90
        0
 91
        1
280
     0
281
     0
  0
CLASS
  1
DICTIONARYVAR
  2
AcDbDictionaryVar
  3
ObjectDBX Classes
 90
        0
 91
        9
280
     0
281
     0
  0
CLASS
  1
CELLSTYLEMAP
  2
AcDbCellStyleMap
  3
ObjectDBX Classes
 90
     1152
 91
        1
280
     0
281
     0
  0
ENDSEC
  0
SECTION
  2
TABLES
  0
TABLE
  2
VPORT
  5
8
330
0
100
AcDbSymbolTable
 70
     1
1001
ACAD
1000
DbSaveVer
1071
      224
  0
VPORT
  5
10059
330
8
100
AcDbSymbolTableRecord
100
AcDbViewportTableRecord
  2
*Active
 70
     0
 10
0.0
 20
0.0
 11
1.0
 21
1.0
 12
31.14680573669712
 22
-0.193466600860603
 13
0.0
 23
0.0
 14
1.0
 24
1.0
 15
0.0
 25
0.0
 16
0.0
 26
0.0
 36
1.0
 17
0.0
 27
0.0
 37
0.0
 40
5.738639147739434
 41
2.292712066905615
 42
50.0
 43
0.0
 44
0.0
 50
0.0
 51
0.0
 71
     0
 72
  1000
 73
     1
 74
     3
 75
     0
 76
     0
 77
     0
 78
     0
281
     0
 65
     1
110
0.0
120
0.0
130
0.0
111
1.0
121
0.0
131
0.0
112
0.0
122
1.0
132
0.0
 79
     0
146
0.0
348
10023
 60
     3
 61
     5
292
     1
282
     1
141
0.0
142
0.0
 63
   250
421
  3355443
1001
ACAD_NAV_VCDISPLAY
1070
     1
  0
ENDTAB
  0
TABLE
  2
LTYPE
  5
5
330
0
100
AcDbSymbolTable
 70
     1
  0
LTYPE
  5
14
330
5
100
AcDbSymbolTableRecord
100
AcDbLinetypeTableRecord
  2
BYBLOCK
 70
     0
  3

 72
    65
 73
     0
 40
0.0
  0
LTYPE
  5
15
330
5
100
AcDbSymbolTableRecord
100
AcDbLinetypeTableRecord
  2
BYLAYER
 70
     0
  3

 72
    65
 73
     0
 40
0.0
  0
LTYPE
  5
10001
330
5
100
AcDbSymbolTableRecord
100
AcDbLinetypeTableRecord
  2
Continuous
 70
     0
  3
Solid line
 72
    65
 73
     0
 40
0.0
  0
ENDTAB
  0
TABLE
  2
LAYER
  5
2
102
{ACAD_XDICTIONARY
360
1023B
102
}
330
0
100
AcDbSymbolTable
 70
     2
  0
LAYER
  5
50
102
{ACAD_XDICTIONARY
360
100E2
102
}
330
2
100
AcDbSymbolTableRecord
100
AcDbLayerTableRecord
  2
0
 70
     0
 62
     7
  6
Continuous
370
    -3
390
10003
347
10015
348
0
  0
LAYER
  5
10071
330
2
100
AcDbSymbolTableRecord
100
AcDbLayerTableRecord
  2
Defpoints
 70
     0
 62
     7
  6
Continuous
290
     0
370
    -3
390
10003
347
10015
348
0
  0
ENDTAB
  0
TABLE
  2
STYLE
  5
3
330
0
100
AcDbSymbolTable
 70
     1
  0
STYLE
  5
11
330
3
100
AcDbSymbolTableRecord
100
AcDbTextStyleTableRecord
  2
STANDARD
 70
     0
 40
0.0
 41
1.0
 50
0.0
 71
     0
 42
0.2
  3

  4

  0
ENDTAB
  0
TABLE
  2
VIEW
  5
6
330
0
100
AcDbSymbolTable
 70
     0
  0
ENDTAB
  0
TABLE
  2
UCS
  5
7
330
0
100
AcDbSymbolTable
 70
     0
  0
ENDTAB
  0
TABLE
  2
APPID
  5
9
330
0
100
AcDbSymbolTable
 70
     4
  0
APPID
  5
12
330
9
100
AcDbSymbolTableRecord
100
AcDbRegAppTableRecord
  2
ACAD
 70
     0
  0
APPID
  5
10058
330
9
100
AcDbSymbolTableRecord
100
AcDbRegAppTableRecord
  2
ACAD_NAV_VCDISPLAY
 70
     0
  0
APPID
  5
1005B
330
9
100
AcDbSymbolTableRecord
100
AcDbRegAppTableRecord
  2
ACAD_EXEMPT_FROM_CAD_STANDARDS
 70
     0
  0
APPID
  5
1040B
330
9
100
AcDbSymbolTableRecord
100
AcDbRegAppTableRecord
  2
ACAD_DSTYLE_DIMRADIAL_EXTENSION
 70
     0
  0
ENDTAB
  0
TABLE
  2
DIMSTYLE
  5
A
330
0
100
AcDbSymbolTable
 70
     1
100
AcDbDimStyleTable
 71
     1
340
10053
  0
DIMSTYLE
105
10053
102
{ACAD_REACTORS
330
104F2
102
}
330
A
100
AcDbSymbolTableRecord
100
AcDbDimStyleTableRecord
  2
Standard
 70
     0
340
11
  0
ENDTAB
  0
TABLE
  2
BLOCK_RECORD
  5
1
330
0
100
AcDbSymbolTable
 70
     8
  0
BLOCK_RECORD
  5
1F
102
{ACAD_XDICTIONARY
360
10065
102
}
330
1
100
AcDbSymbolTableRecord
100
AcDbBlockTableRecord
  2
*MODEL_SPACE
340
10055
 70
     0
280
     1
281
     0
  0
BLOCK_RECORD
  5
1B
330
1
100
AcDbSymbolTableRecord
100
AcDbBlockTableRecord
  2
*PAPER_SPACE
340
10056
 70
     0
280
     1
281
     0
  0
BLOCK_RECORD
  5
104DB
330
1
100
AcDbSymbolTableRecord
100
AcDbBlockTableRecord
  2
*D6
340
0
 70
     0
280
     1
281
     0
  0
BLOCK_RECORD
  5
104F3
330
1
100
AcDbSymbolTableRecord
100
AcDbBlockTableRecord
  2
*D7
340
0
 70
     0
280
     1
281
     0
  0
ENDTAB
  0
ENDSEC
  0
SECTION
  2
BLOCKS
  0
BLOCK
  5
20
330
1F
100
AcDbEntity
  8
0
100
AcDbBlockBegin
  2
*MODEL_SPACE
 70
     0
 10
0.0
 20
0.0
 30
0.0
  3
*MODEL_SPACE
  1

  0
ENDBLK
  5
21
330
1F
100
AcDbEntity
  8
0
100
AcDbBlockEnd
  0
BLOCK
  5
1C
330
1B
100
AcDbEntity
 67
     1
  8
0
100
AcDbBlockBegin
  2
*PAPER_SPACE
 70
     0
 10
0.0
 20
0.0
 30
0.0
  3
*PAPER_SPACE
  1

  0
ENDBLK
  5
1D
330
1B
100
AcDbEntity
 67
     1
  8
0
100
AcDbBlockEnd
  0
BLOCK
  5
104DC
330
104DB
100
AcDbEntity
  8
0
100
AcDbBlockBegin
  2
*D6
 70
     1
 10
0.0
 20
0.0
 30
0.0
  3
*D6
  1

  0
LINE
  5
104E8
330
104DB
100
AcDbEntity
  8
0
  6
Continuous
 62
     0
440
 16777216
370
    -2
100
AcDbLine
 10
39.8983247631946
 20
8.723516102561948
 30
0.0
 11
51.73690210668307
 21
-2.708865147730151
 31
0.0
  0
LINE
  5
104E9
330
104DB
100
AcDbEntity
  8
0
  6
Continuous
 62
     0
440
 16777216
370
    -2
100
AcDbLine
 10
22.63836465155723
 20
-9.149695807854602
 30
0.0
 11
34.47694199504577
 21
-20.58207705814676
 31
0.0
  0
LINE
  5
104EA
330
104DB
100
AcDbEntity
  8
0
  6
Continuous
 62
     0
440
 16777216
370
    -2
100
AcDbLine
 10
51.48238243593948
 20
-2.713307805108488
 30
0.0
 11
43.33492579158638
 21
-11.15024614063057
 31
0.0
  0
LINE
  5
104EB
330
104DB
100
AcDbEntity
  8
0
  6
Continuous
 62
     0
440
 16777216
370
    -2
100
AcDbLine
 10
34.47249933766742
 20
-20.32755738740318
 30
0.0
 11
42.9836021550546
 21
-11.51405241621038
 31
0.0
  0
SOLID
  5
104EC
330
104DB
100
AcDbEntity
  8
0
  6
Continuous
 62
     0
440
 16777216
100
AcDbTrace
 10
51.46080224192933
 20
-2.692468053994719
 30
0.0
 11
51.50396262994965
 21
-2.734147556222261
 31
0.0
 12
51.60742094262211
 22
-2.583826641047529
 32
0.0
 13
51.60742094262211
 23
-2.583826641047529
 33
0.0
  0
SOLID
  5
104ED
330
104DB
100
AcDbEntity
  8
0
  6
Continuous
 62
     0
440
 16777216
100
AcDbTrace
 10
34.45091914365726
 20
-20.30671763628941
 30
0.0
 11
34.49407953167759
 21
-20.34839713851695
 31
0.0
 12
34.3474608309848
 22
-20.45703855146414
 32
0.0
 13
34.3474608309848
 23
-20.45703855146414
 33
0.0
  0
MTEXT
  5
104EE
330
104DB
100
AcDbEntity
  8
0
  6
Continuous
 62
     0
440
 16777216
100
AcDbMText
 10
43.15926397332049
 20
-11.33214927842047
 30
0.0
 40
0.18
 41
0.0
 46
0.0
 71
     5
 72
     1
  1
\A1;24.8467
 73
     1
 44
1.0
  0
POINT
  5
104EF
330
104DB
100
AcDbEntity
  8
Defpoints
  6
Continuous
 62
     0
440
 16777216
100
AcDbPoint
 10
39.85336602567342
 20
8.766932250715635
 30
0.0
  0
POINT
  5
104F0
330
104DB
100
AcDbEntity
  8
Defpoints
  6
Continuous
 62
     0
440
 16777216
100
AcDbPoint
 10
22.59340591403606
 20
-9.106279659700915
 30
0.0
  0
POINT
  5
104F1
330
104DB
100
AcDbEntity
  8
Defpoints
  6
Continuous
 62
     0
440
 16777216
100
AcDbPoint
 10
34.3474608309848
 20
-20.45703855146414
 30
0.0
  0
ENDBLK
  5
104DD
330
104DB
100
AcDbEntity
  8
0
100
AcDbBlockEnd
  0
BLOCK
  5
104F4
330
104F3
100
AcDbEntity
  8
0
100
AcDbBlockBegin
  2
*D7
 70
     1
 10
0.0
 20
0.0
 30
0.0
  3
*D7
  1

  0
LINE
  5
104F6
330
104F3
100
AcDbEntity
  8
0
  6
Continuous
 62
     0
440
 16777216
370
    -2
100
AcDbLine
 10
37.23739446167464
 20
6.079816025238455
 30
0.0
 11
36.78189207805102
 21
6.519689564001657
 31
0.0
  0
LINE
  5
104F7
330
104F3
100
AcDbEntity
  8
0
  6
Continuous
 62
     0
440
 16777216
370
    -2
100
AcDbLine
 10
25.38734626349104
 20
-6.191268103859981
 30
0.0
 11
24.93184387986742
 21
-5.751394565096786
 31
0.0
  0
LINE
  5
104F8
330
104F3
100
AcDbEntity
  8
0
  6
Continuous
 62
     0
440
 16777216
370
    -2
100
AcDbLine
 10
36.78633473542935
 20
6.265169893258082
 30
0.0
 11
31.16201096128607
 21
0.4410121305597201
 31
0.0
  0
LINE
  5
104F9
330
104F3
100
AcDbEntity
  8
0
  6
Continuous
 62
     0
440
 16777216
370
    -2
100
AcDbLine
 10
25.18636355061099
 20
-5.746951907718448
 30
0.0
 11
30.81068732475428
 21
0.077205854979912
 31
0.0
  0
SOLID
  5
104FA
330
104F3
100
AcDbEntity
  8
0
  6
Continuous
 62
     0
440
 16777216
100
AcDbTrace
 10
36.76475454141919
 20
6.286009644371853
 30
0.0
 11
36.80791492943952
 21
6.244330142144313
 31
0.0
 12
36.91137324211197
 22
6.394651057319038
 32
0.0
 13
36.91137324211197
 23
6.394651057319038
 33
0.0
  0
SOLID
  5
104FB
330
104F3
100
AcDbEntity
  8
0
  6
Continuous
 62
     0
440
 16777216
100
AcDbTrace
 10
25.16478335660083
 20
-5.726112156604678
 30
0.0
 11
25.20794374462115
 21
-5.767791658832218
 31
0.0
 12
25.06132504392838
 22
-5.876433071779405
 32
0.0
 13
25.06132504392838
 23
-5.876433071779405
 33
0.0
  0
MTEXT
  5
104FC
330
104F3
100
AcDbEntity
  8
0
  6
Continuous
 62
     0
440
 16777216
100
AcDbMText
 10
30.98634914302017
 20
0.2591089927698178
 30
0.0
 40
0.18
 41
0.0
 46
0.0
 71
     5
 72
     1
  1
\A1;17.0588
 73
     1
 44
1.0
  0
POINT
  5
104FD
330
104F3
100
AcDbEntity
  8
Defpoints
  6
Continuous
 62
     0
440
 16777216
100
AcDbPoint
 10
37.28235319919581
 20
6.036399877084766
 30
0.0
  0
POINT
  5
104FE
330
104F3
100
AcDbEntity
  8
Defpoints
  6
Continuous
 62
     0
440
 16777216
100
AcDbPoint
 10
25.4323050010122
 20
-6.234684252013668
 30
0.0
  0
POINT
  5
104FF
330
104F3
100
AcDbEntity
  8
Defpoints
  6
Continuous
 62
     0
440
 16777216
100
AcDbPoint
 10
25.06132504392838
 20
-5.876433071779405
 30
0.0
  0
ENDBLK
  5
104F5
330
104F3
100
AcDbEntity
  8
0
100
AcDbBlockEnd
  0
ENDSEC
  0
SECTION
  2
ENTITIES
  0
LINE
  5
10233
330
1F
100
AcDbEntity
  8
0
  6
Continuous
100
AcDbLine
 10
31.419397426244
 20
-0.1590808732889012
 30
0.0
 11
31.64863468849546
 21
0.078301260822847
 31
0.0
  0
LINE
  5
10235
330
1F
100
AcDbEntity
  8
0
  6
Continuous
100
AcDbLine
 10
34.03805358241243
 20
2.552616957817796
 30
0.0
 11
34.49652810691536
 21
3.027381226041307
 31
0.0
  0
LINE
  5
10237
330
1F
100
AcDbEntity
  8
0
  6
Continuous
100
AcDbLine
 10
36.82387867469287
 20
5.561635608861258
 30
0.0
 11
37.28235319919581
 21
6.036399877084768
 31
0.0
  0
LINE
  5
10253
330
1F
100
AcDbEntity
  8
0
100
AcDbLine
 10
37.28235319919581
 20
6.036399877084768
 30
0.0
 11
37.67540981095293
 21
5.656829519247218
 31
0.0
  0
ARC
  5
10254
330
1F
100
AcDbEntity
  8
0
100
AcDbCircle
 10
37.56079117982719
 20
5.538138452191342
 30
0.0
 40
0.165
100
AcDbArc
 50
331.885271124534
 51
46.00000000000052
  0
LINE
  5
10255
330
1F
100
AcDbEntity
  8
0
100
AcDbLine
 10
37.7063221294163
 20
5.460384077962646
 30
0.0
 11
36.89370471032698
 21
3.939428043966718
 31
0.0
  0
ARC
  5
10256
330
1F
100
AcDbEntity
  8
0
100
AcDbCircle
 10
37.03923565991607
 20
3.861673669738019
 30
0.0
 40
0.1650000000000011
100
AcDbArc
 50
151.8852711245321
 51
225.9999999999994
  0
LINE
  5
10257
330
1F
100
AcDbEntity
  8
0
100
AcDbLine
 10
36.92461702879034
 20
3.742982602682142
 30
0.0
 11
37.79505026142587
 21
2.902415000706982
 31
0.0
  0
ARC
  5
10258
330
1F
100
AcDbEntity
  8
0
100
AcDbCircle
 10
37.68043163030013
 20
2.783723933651105
 30
0.0
 40
0.165
100
AcDbArc
 50
331.8852711245359
 51
46.00000000000094
  0
LINE
  5
10259
330
1F
100
AcDbEntity
  8
0
100
AcDbLine
 10
37.82596257988924
 20
2.705969559422419
 30
0.0
 11
36.86479161319093
 21
0.9069695045874409
 31
0.0
  0
ARC
  5
1025A
330
1F
100
AcDbEntity
  8
0
100
AcDbCircle
 10
37.01032256278003
 20
0.8292151303587457
 30
0.0
 40
0.165000000000003
100
AcDbArc
 50
151.8852711245336
 51
225.9999999999988
  0
LINE
  5
1025B
330
1F
100
AcDbEntity
  8
0
100
AcDbLine
 10
36.8957039316543
 20
0.7105240633028695
 30
0.0
 11
37.76613716428995
 21
-0.1300435386724178
 31
0.0
  0
ARC
  5
1025C
330
1F
100
AcDbEntity
  8
0
100
AcDbCircle
 10
37.65151853316421
 20
-0.2487346057282918
 30
0.0
 40
0.165
100
AcDbArc
 50
331.8852711245321
 51
45.99999999999893
  0
LINE
  5
1025D
330
1F
100
AcDbEntity
  8
0
100
AcDbLine
 10
37.7970494827533
 20
-0.3264889799569893
 30
0.0
 11
36.835878516055
 21
-2.125489034791956
 31
0.0
  0
ARC
  5
1025E
330
1F
100
AcDbEntity
  8
0
100
AcDbCircle
 10
36.98140946564409
 20
-2.203243409020653
 30
0.0
 40
0.1649999999999989
100
AcDbArc
 50
151.8852711245324
 51
226.0
  0
LINE
  5
1025F
330
1F
100
AcDbEntity
  8
0
100
AcDbLine
 10
36.86679083451835
 20
-2.321934476076525
 30
0.0
 11
37.73722406715402
 21
-3.162502078051812
 31
0.0
  0
ARC
  5
10260
330
1F
100
AcDbEntity
  8
0
100
AcDbCircle
 10
37.62260543602829
 20
-3.281193145107686
 30
0.0
 40
0.1649999999999953
100
AcDbArc
 50
331.8852711245321
 51
46.00000000000004
  0
LINE
  5
10261
330
1F
100
AcDbEntity
  8
0
100
AcDbLine
 10
37.76813638561738
 20
-3.358947519336384
 30
0.0
 11
36.95551896652817
 21
-4.879903553332183
 31
0.0
  0
ARC
  5
10262
330
1F
100
AcDbEntity
  8
0
100
AcDbCircle
 10
37.10104991611727
 20
-4.957657927560871
 30
0.0
 40
0.1650000000000015
100
AcDbArc
 50
151.8852711245353
 51
225.9999999999996
  0
LINE
  5
10263
330
1F
100
AcDbEntity
  8
0
100
AcDbLine
 10
36.98643128499153
 20
-5.07634899461675
 30
0.0
 11
38.10513782218747
 21
-6.156671339890172
 31
0.0
  0
LINE
  5
102C0
330
1F
100
AcDbEntity
  8
0
100
AcDbLine
 10
31.64863468849546
 20
0.0783012608228516
 30
0.0
 11
31.74525327815621
 21
-0.0150022266502261
 31
0.0
  0
ARC
  5
102C1
330
1F
100
AcDbEntity
  8
0
100
AcDbCircle
 10
31.85987190928194
 20
0.1036888404056504
 30
0.0
 40
0.165
100
AcDbArc
 50
226.0000000000001
 51
300.1147288754661
  0
LINE
  5
102C2
330
1F
100
AcDbEntity
  8
0
100
AcDbLine
 10
31.94265787454201
 20
-0.0390398671340724
 30
0.0
 11
33.2046964050591
 21
0.6929717915237869
 31
0.0
  0
ARC
  5
102C3
330
1F
100
AcDbEntity
  8
0
100
AcDbCircle
 10
33.12191043979904
 20
0.8357004990635095
 30
0.0
 40
0.164999999999998
100
AcDbArc
 50
300.1147288754659
 51
331.885271124534
  0
LINE
  5
102C4
330
1F
100
AcDbEntity
  8
0
100
AcDbLine
 10
33.26744138938813
 20
0.7579461248348192
 30
0.0
 11
34.10351616439653
 21
2.322806714884623
 31
0.0
  0
ARC
  5
102C5
330
1F
100
AcDbEntity
  8
0
100
AcDbCircle
 10
33.95798521480744
 20
2.400561089113319
 30
0.0
 40
0.1649999999999981
100
AcDbArc
 50
331.8852711245322
 51
45.99999999999833
  0
LINE
  5
102C6
330
1F
100
AcDbEntity
  8
0
100
AcDbLine
 10
34.07260384593318
 20
2.519252156169185
 30
0.0
 11
34.03805358241247
 21
2.552616957817754
 31
0.0
  0
LINE
  5
102C7
330
1F
100
AcDbEntity
  8
0
100
AcDbLine
 10
34.49652810691541
 20
3.027381226041264
 30
0.0
 11
34.53107837043598
 21
2.994016424392827
 31
0.0
  0
ARC
  5
102C8
330
1F
100
AcDbEntity
  8
0
100
AcDbCircle
 10
34.64569700156172
 20
3.112707491448699
 30
0.0
 40
0.1649999999999953
100
AcDbArc
 50
225.9999999999971
 51
300.1147288754625
  0
LINE
  5
102C9
330
1F
100
AcDbEntity
  8
0
100
AcDbLine
 10
34.72848296682177
 20
2.969978783908967
 30
0.0
 11
35.9905214973393
 21
3.701990442567004
 31
0.0
  0
ARC
  5
102CA
330
1F
100
AcDbEntity
  8
0
100
AcDbCircle
 10
35.90773553207924
 20
3.844719150106731
 30
0.0
 40
0.1650000000000036
100
AcDbArc
 50
300.1147288754632
 51
331.8852711245335
  0
LINE
  5
102CB
330
1F
100
AcDbEntity
  8
0
100
AcDbLine
 10
36.05326648166835
 20
3.766964775878037
 30
0.0
 11
36.88934125667692
 21
5.331825365928136
 31
0.0
  0
ARC
  5
102CC
330
1F
100
AcDbEntity
  8
0
100
AcDbCircle
 10
36.74381030708782
 20
5.409579740156832
 30
0.0
 40
0.1649999999999996
100
AcDbArc
 50
331.885271124534
 51
46.0000000000001
  0
LINE
  5
102CD
330
1F
100
AcDbEntity
  8
0
100
AcDbLine
 10
36.85842893821355
 20
5.528270807212708
 30
0.0
 11
36.82387867469287
 21
5.561635608861258
 31
0.0
  0
LINE
  5
10352
330
1F
100
AcDbEntity
  8
0
100
AcDbLine
 10
36.26363428547854
 20
-4.774322800581816
 30
0.0
 11
36.95115551287802
 21
-3.487506231370891
 31
0.0
  0
ARC
  5
10353
330
1F
100
AcDbEntity
  8
0
100
AcDbCircle
 10
36.80562456328893
 20
-3.409751857142208
 30
0.0
 40
0.1649999999999947
100
AcDbArc
 50
331.8852711245363
 51
46.00000000000264
  0
LINE
  5
10354
330
1F
100
AcDbEntity
  8
0
100
AcDbLine
 10
36.92024319441465
 20
-3.291060790086326
 30
0.0
 11
36.40831631001542
 21
-2.796698744300038
 31
0.0
  0
ARC
  5
10355
330
1F
100
AcDbEntity
  8
0
100
AcDbCircle
 10
36.29369767888969
 20
-2.915389811355916
 30
0.0
 40
0.165
100
AcDbArc
 50
46.0000000000001
 51
120.1147288754662
  0
LINE
  5
10356
330
1F
100
AcDbEntity
  8
0
100
AcDbLine
 10
36.21091171362963
 20
-2.772661103816194
 30
0.0
 11
34.94887318311259
 21
-3.504672762474037
 31
0.0
  0
ARC
  5
10357
330
1F
100
AcDbEntity
  8
0
100
AcDbCircle
 10
35.03165914837266
 20
-3.647401470013762
 30
0.0
 40
0.165000000000003
100
AcDbArc
 50
120.1147288754664
 51
136.0000000000131
  0
ARC
  5
1035D
330
1F
100
AcDbEntity
  8
0
100
AcDbCircle
 10
36.11810333588945
 20
-4.696568426353123
 30
0.0
 40
0.1650000000000002
100
AcDbArc
 50
315.999999999987
 51
331.885271124534
  0
LINE
  5
1035E
330
1F
100
AcDbEntity
  8
0
100
AcDbLine
 10
34.57543321740599
 20
0.0573976161788298
 30
0.0
 11
36.11016194781226
 21
0.9475759240267683
 31
0.0
  0
ARC
  5
1035F
330
1F
100
AcDbEntity
  8
0
100
AcDbCircle
 10
36.0273759825522
 20
1.090304631566495
 30
0.0
 40
0.1650000000000028
100
AcDbArc
 50
300.1147288754664
 51
331.8852711245335
  0
LINE
  5
10360
330
1F
100
AcDbEntity
  8
0
100
AcDbLine
 10
36.1729069321413
 20
1.0125502573378
 30
0.0
 11
37.00898170714987
 21
2.5774108473879
 31
0.0
  0
ARC
  5
10361
330
1F
100
AcDbEntity
  8
0
100
AcDbCircle
 10
36.86345075756076
 20
2.655165221616595
 30
0.0
 40
0.1649999999999986
100
AcDbArc
 50
331.8852711245321
 51
46.00000000000005
  0
LINE
  5
10362
330
1F
100
AcDbEntity
  8
0
100
AcDbLine
 10
36.97806938868649
 20
2.773856288672467
 30
0.0
 11
36.59027915656744
 21
3.14834096280967
 31
0.0
  0
ARC
  5
10363
330
1F
100
AcDbEntity
  8
0
100
AcDbCircle
 10
36.47566052544171
 20
3.029649895753798
 30
0.0
 40
0.1649999999999953
100
AcDbArc
 50
45.99999999999983
 51
120.1147288754676
  0
LINE
  5
10364
330
1F
100
AcDbEntity
  8
0
100
AcDbLine
 10
36.39287456018165
 20
3.172378603293516
 30
0.0
 11
34.85814582977535
 21
2.282200295445573
 31
0.0
  0
ARC
  5
10365
330
1F
100
AcDbEntity
  8
0
100
AcDbCircle
 10
34.94093179503541
 20
2.13947158790585
 30
0.0
 40
0.1650000000000027
100
AcDbArc
 50
120.1147288754664
 51
151.8852711245337
  0
LINE
  5
10366
330
1F
100
AcDbEntity
  8
0
100
AcDbLine
 10
34.79540084544631
 20
2.21722596213454
 30
0.0
 11
33.95932607043775
 21
0.6523653720844596
 31
0.0
  0
ARC
  5
10367
330
1F
100
AcDbEntity
  8
0
100
AcDbCircle
 10
34.10485702002686
 20
0.5746109978557691
 30
0.0
 40
0.1650000000000004
100
AcDbArc
 50
151.8852711245337
 51
226.0
  0
LINE
  5
10368
330
1F
100
AcDbEntity
  8
0
100
AcDbLine
 10
33.99023838890112
 20
0.4559199307998928
 30
0.0
 11
34.37802862102018
 21
0.0814352566626761
 31
0.0
  0
ARC
  5
10369
330
1F
100
AcDbEntity
  8
0
100
AcDbCircle
 10
34.49264725214592
 20
0.2001263237185618
 30
0.0
 40
0.1650000000000047
100
AcDbArc
 50
226.0000000000013
 51
300.1147288754682
  0
ARC
  5
10371
330
1F
100
AcDbEntity
  8
0
100
AcDbCircle
 10
34.53804458080827
 20
-3.170723423035585
 30
0.0
 40
0.1650000000000019
100
AcDbArc
 50
120.1147288754662
 51
136.0000000000131
  0
LINE
  5
10372
330
1F
100
AcDbEntity
  8
0
100
AcDbLine
 10
34.4552586155482
 20
-3.02799471549586
 30
0.0
 11
36.08124885067635
 21
-2.084882615352629
 31
0.0
  0
ARC
  5
10373
330
1F
100
AcDbEntity
  8
0
100
AcDbCircle
 10
35.99846288541629
 20
-1.942153907812906
 30
0.0
 40
0.1650000000000002
100
AcDbArc
 50
300.1147288754661
 51
331.885271124534
  0
LINE
  5
10374
330
1F
100
AcDbEntity
  8
0
100
AcDbLine
 10
36.14399383500539
 20
-2.019908282041596
 30
0.0
 11
36.98006861001393
 21
-0.455047691991506
 31
0.0
  0
ARC
  5
10375
330
1F
100
AcDbEntity
  8
0
100
AcDbCircle
 10
36.83453766042484
 20
-0.3772933177628061
 30
0.0
 40
0.1650000000000015
100
AcDbArc
 50
331.8852711245321
 51
45.99999999999918
  0
LINE
  5
10376
330
1F
100
AcDbEntity
  8
0
100
AcDbLine
 10
36.94915629155057
 20
-0.2586022507069321
 30
0.0
 11
36.43722940715135
 21
0.2357597950793544
 31
0.0
  0
ARC
  5
10377
330
1F
100
AcDbEntity
  8
0
100
AcDbCircle
 10
36.32261077602561
 20
0.1170687280234733
 30
0.0
 40
0.1650000000000047
100
AcDbArc
 50
46.0000000000001
 51
120.1147288754646
  0
LINE
  5
10378
330
1F
100
AcDbEntity
  8
0
100
AcDbLine
 10
36.23982481076556
 20
0.2597974355632007
 30
0.0
 11
34.47546504113946
 21
-0.7635722082336743
 31
0.0
  0
ARC
  5
10379
330
1F
100
AcDbEntity
  8
0
100
AcDbCircle
 10
34.3926790758794
 20
-0.6208435006939516
 30
0.0
 40
0.1650000000000002
100
AcDbArc
 50
226.0000000000005
 51
300.1147288754661
  0
LINE
  5
1037A
330
1F
100
AcDbEntity
  8
0
100
AcDbLine
 10
34.27806044475366
 20
-0.739534567749828
 30
0.0
 11
33.53176386439816
 21
-0.0188443374236317
 31
0.0
  0
ARC
  5
1037B
330
1F
100
AcDbEntity
  8
0
100
AcDbCircle
 10
33.41714523327242
 20
-0.1375354044795034
 30
0.0
 40
0.165
100
AcDbArc
 50
45.99999999999957
 51
120.1147288754643
  0
LINE
  5
1037C
330
1F
100
AcDbEntity
  8
0
100
AcDbLine
 10
33.33435926801237
 20
0.0051933030602193
 30
0.0
 11
32.0723207374953
 21
-0.7268183555976284
 31
0.0
  0
ARC
  5
1037D
330
1F
100
AcDbEntity
  8
0
100
AcDbCircle
 10
32.15510670275536
 20
-0.869547063137365
 30
0.0
 40
0.1650000000000112
100
AcDbArc
 50
120.1147288754637
 51
135.9999999999984
  0
LINE
  5
103B9
330
1F
100
AcDbEntity
  8
0
100
AcDbLine
 10
25.43230500101221
 20
-6.234684252013672
 30
0.0
 11
25.82536161276932
 21
-6.61425460985122
 31
0.0
  0
ARC
  5
103BA
330
1F
100
AcDbEntity
  8
0
100
AcDbCircle
 10
25.93998024389506
 20
-6.495563542795344
 30
0.0
 40
0.165
100
AcDbArc
 50
225.9999999999994
 51
300.1147288754661
  0
LINE
  5
103BB
330
1F
100
AcDbEntity
  8
0
100
AcDbLine
 10
26.02276620915512
 20
-6.638292250335067
 30
0.0
 11
27.51443577889209
 21
-5.773089255728186
 31
0.0
  0
ARC
  5
103BC
330
1F
100
AcDbEntity
  8
0
100
AcDbCircle
 10
27.59722174415216
 20
-5.915817963267906
 30
0.0
 40
0.1650000000000011
100
AcDbArc
 50
46.00000000000069
 51
120.1147288754678
  0
LINE
  5
103BD
330
1F
100
AcDbEntity
  8
0
100
AcDbLine
 10
27.71184037527789
 20
-5.797126896212031
 30
0.0
 11
28.58227360791342
 21
-6.637694498187191
 31
0.0
  0
ARC
  5
103BE
330
1F
100
AcDbEntity
  8
0
100
AcDbCircle
 10
28.69689223903916
 20
-6.519003431131315
 30
0.0
 40
0.165
100
AcDbArc
 50
225.999999999999
 51
300.1147288754643
  0
LINE
  5
103BF
330
1F
100
AcDbEntity
  8
0
100
AcDbLine
 10
28.77967820429921
 20
-6.661732138671039
 30
0.0
 11
30.54403797392531
 21
-5.638362494874169
 31
0.0
  0
ARC
  5
103C0
330
1F
100
AcDbEntity
  8
0
100
AcDbCircle
 10
30.62682393918537
 20
-5.781091202413894
 30
0.0
 40
0.165000000000003
100
AcDbArc
 50
46.00000000000117
 51
120.1147288754661
  0
LINE
  5
103C1
330
1F
100
AcDbEntity
  8
0
100
AcDbLine
 10
30.74144257031111
 20
-5.662400135358011
 30
0.0
 11
31.61187580294676
 21
-6.502967737333298
 31
0.0
  0
ARC
  5
103C2
330
1F
100
AcDbEntity
  8
0
100
AcDbCircle
 10
31.72649443407249
 20
-6.384276670277417
 30
0.0
 40
0.165
100
AcDbArc
 50
226.0000000000011
 51
300.1147288754677
  0
LINE
  5
103C3
330
1F
100
AcDbEntity
  8
0
100
AcDbLine
 10
31.80928039933256
 20
-6.52700537781714
 30
0.0
 11
33.57364016895865
 21
-5.503635734020265
 31
0.0
  0
ARC
  5
103C4
330
1F
100
AcDbEntity
  8
0
100
AcDbCircle
 10
33.65642613421871
 20
-5.646364441559986
 30
0.0
 40
0.1649999999999989
100
AcDbArc
 50
46.00000000000004
 51
120.1147288754678
  0
LINE
  5
103C5
330
1F
100
AcDbEntity
  8
0
100
AcDbLine
 10
33.77104476534444
 20
-5.527673374504111
 30
0.0
 11
34.64147799798011
 21
-6.368240976479398
 31
0.0
  0
ARC
  5
103C6
330
1F
100
AcDbEntity
  8
0
100
AcDbCircle
 10
34.75609662910584
 20
-6.249549909423524
 30
0.0
 40
0.1649999999999953
100
AcDbArc
 50
226.0
 51
300.1147288754677
  0
LINE
  5
103C7
330
1F
100
AcDbEntity
  8
0
100
AcDbLine
 10
34.8388825943659
 20
-6.392278616963247
 30
0.0
 11
36.33055216410274
 21
-5.52707562235647
 31
0.0
  0
ARC
  5
103C8
330
1F
100
AcDbEntity
  8
0
100
AcDbCircle
 10
36.4133381293628
 20
-5.669804329896195
 30
0.0
 40
0.1650000000000015
100
AcDbArc
 50
46.00000000000044
 51
120.1147288754644
  0
LINE
  5
103C9
330
1F
100
AcDbEntity
  8
0
100
AcDbLine
 10
36.52795676048854
 20
-5.551113262840314
 30
0.0
 11
37.64666329768449
 21
-6.631435608113729
 31
0.0
  0
LINE
  5
103CA
330
1F
100
AcDbEntity
  8
0
100
AcDbLine
 10
31.19016016399253
 20
-0.3964630074006517
 30
0.0
 11
31.28677875365328
 21
-0.4897664948737293
 31
0.0
  0
ARC
  5
103CB
330
1F
100
AcDbEntity
  8
0
100
AcDbCircle
 10
31.17216012252754
 20
-0.6084575619296082
 30
0.0
 40
0.165
100
AcDbArc
 50
331.885271124534
 51
45.99999999999983
  0
LINE
  5
103CC
330
1F
100
AcDbEntity
  8
0
100
AcDbLine
 10
31.31769107211664
 20
-0.6862119361582986
 30
0.0
 11
30.63016984471716
 21
-1.973028505369258
 31
0.0
  0
ARC
  5
103CD
330
1F
100
AcDbEntity
  8
0
100
AcDbCircle
 10
30.48463889512806
 20
-1.895274131140568
 30
0.0
 40
0.164999999999998
100
AcDbArc
 50
300.114728875466
 51
331.885271124534
  0
LINE
  5
103CE
330
1F
100
AcDbEntity
  8
0
100
AcDbLine
 10
30.56742486038812
 20
-2.038002838680291
 30
0.0
 11
29.03269612998211
 21
-2.928181146528056
 31
0.0
  0
ARC
  5
103CF
330
1F
100
AcDbEntity
  8
0
100
AcDbCircle
 10
28.94991016472204
 20
-2.785452438988338
 30
0.0
 40
0.1649999999999981
100
AcDbArc
 50
226.0000000000017
 51
300.1147288754677
  0
LINE
  5
103D0
330
1F
100
AcDbEntity
  8
0
100
AcDbLine
 10
28.83529153359631
 20
-2.904143506044214
 30
0.0
 11
28.80074127007561
 21
-2.870778704395643
 31
0.0
  0
LINE
  5
103D1
330
1F
100
AcDbEntity
  8
0
100
AcDbLine
 10
28.34226674557267
 20
-3.345542972619154
 30
0.0
 11
28.37681700909324
 21
-3.378907774267593
 31
0.0
  0
ARC
  5
103D2
330
1F
100
AcDbEntity
  8
0
100
AcDbCircle
 10
28.26219837796752
 20
-3.497598841323474
 30
0.0
 40
0.1649999999999953
100
AcDbArc
 50
331.8852711245372
 51
46.00000000000302
  0
LINE
  5
103D3
330
1F
100
AcDbEntity
  8
0
100
AcDbLine
 10
28.40772932755661
 20
-3.575353215552155
 30
0.0
 11
27.72020810015697
 21
-4.862169784763565
 31
0.0
  0
ARC
  5
103D4
330
1F
100
AcDbEntity
  8
0
100
AcDbCircle
 10
27.57467715056786
 20
-4.78441541053488
 30
0.0
 40
0.1650000000000036
100
AcDbArc
 50
300.1147288754661
 51
331.8852711245372
  0
LINE
  5
103D5
330
1F
100
AcDbEntity
  8
0
100
AcDbLine
 10
27.65746311582793
 20
-4.927144118074605
 30
0.0
 11
26.12273438542163
 21
-5.817322425922555
 31
0.0
  0
ARC
  5
103D6
330
1F
100
AcDbEntity
  8
0
100
AcDbCircle
 10
26.03994842016156
 20
-5.674593718382835
 30
0.0
 40
0.1649999999999996
100
AcDbArc
 50
225.9999999999998
 51
300.1147288754661
  0
LINE
  5
103D7
330
1F
100
AcDbEntity
  8
0
100
AcDbLine
 10
25.92532978903583
 20
-5.793284785438712
 30
0.0
 11
25.89077952551515
 21
-5.759919983790159
 31
0.0
  0
LINE
  5
103D8
330
1F
100
AcDbEntity
  8
0
100
AcDbLine
 10
36.20088930114946
 20
-4.8392971338929
 30
0.0
 11
34.9388507706324
 21
-5.571308792550747
 31
0.0
  0
ARC
  5
103D9
330
1F
100
AcDbEntity
  8
0
100
AcDbCircle
 10
34.85606480537234
 20
-5.428580085011023
 30
0.0
 40
0.1649999999999947
100
AcDbArc
 50
225.9999999999973
 51
300.1147288754636
  0
LINE
  5
103DA
330
1F
100
AcDbEntity
  8
0
100
AcDbLine
 10
34.74144617424661
 20
-5.547271152066892
 30
0.0
 11
34.22951928984739
 21
-5.052909106280603
 31
0.0
  0
ARC
  5
103DB
330
1F
100
AcDbEntity
  8
0
100
AcDbCircle
 10
34.34413792097313
 20
-4.934218039224727
 30
0.0
 40
0.165
100
AcDbArc
 50
151.885271124534
 51
225.9999999999998
  0
LINE
  5
103DC
330
1F
100
AcDbEntity
  8
0
100
AcDbLine
 10
34.19860697138402
 20
-4.856463664996036
 30
0.0
 11
34.8861281987835
 21
-3.569647095785123
 31
0.0
  0
ARC
  5
103DD
330
1F
100
AcDbEntity
  8
0
100
AcDbCircle
 10
35.0316591483726
 20
-3.647401470013816
 30
0.0
 40
0.165000000000003
100
AcDbArc
 50
135.9999999999869
 51
151.8852711245337
  0
ARC
  5
103DE
330
1F
100
AcDbEntity
  8
0
100
AcDbCircle
 10
36.11810333588939
 20
-4.696568426353177
 30
0.0
 40
0.1650000000000002
100
AcDbArc
 50
300.1147288754661
 51
316.0000000000132
  0
LINE
  5
103DF
330
1F
100
AcDbEntity
  8
0
100
AcDbLine
 10
31.31319487030963
 20
-3.320749083049488
 30
0.0
 11
30.47712009530107
 21
-4.885609673099563
 31
0.0
  0
ARC
  5
103E0
330
1F
100
AcDbEntity
  8
0
100
AcDbCircle
 10
30.33158914571196
 20
-4.807855298870867
 30
0.0
 40
0.1650000000000028
100
AcDbArc
 50
300.1147288754661
 51
331.885271124534
  0
LINE
  5
103E1
330
1F
100
AcDbEntity
  8
0
100
AcDbLine
 10
30.41437511097203
 20
-4.950584006410594
 30
0.0
 11
28.87964638056573
 21
-5.840762314258533
 31
0.0
  0
ARC
  5
103E2
330
1F
100
AcDbEntity
  8
0
100
AcDbCircle
 10
28.79686041530566
 20
-5.69803360671881
 30
0.0
 40
0.1649999999999986
100
AcDbArc
 50
226.0
 51
300.1147288754677
  0
LINE
  5
103E3
330
1F
100
AcDbEntity
  8
0
100
AcDbLine
 10
28.68224178417993
 20
-5.816724673774684
 30
0.0
 11
28.29445155206087
 21
-5.442239999637482
 31
0.0
  0
ARC
  5
103E4
330
1F
100
AcDbEntity
  8
0
100
AcDbCircle
 10
28.4090701831866
 20
-5.323548932581608
 30
0.0
 40
0.1649999999999953
100
AcDbArc
 50
151.8852711245321
 51
226.0000000000001
  0
LINE
  5
103E5
330
1F
100
AcDbEntity
  8
0
100
AcDbLine
 10
28.26353923359751
 20
-5.245794558352915
 30
0.0
 11
29.09961400860608
 21
-3.68093396830282
 31
0.0
  0
ARC
  5
103E6
330
1F
100
AcDbEntity
  8
0
100
AcDbCircle
 10
29.24514495819517
 20
-3.758688342531513
 30
0.0
 40
0.1650000000000027
100
AcDbArc
 50
120.1147288754661
 51
151.8852711245337
  0
LINE
  5
103E7
330
1F
100
AcDbEntity
  8
0
100
AcDbLine
 10
29.16235899293511
 20
-3.615959634991788
 30
0.0
 11
30.6970877233414
 21
-2.72578132714386
 31
0.0
  0
ARC
  5
103E8
330
1F
100
AcDbEntity
  8
0
100
AcDbCircle
 10
30.77987368860146
 20
-2.868510034683581
 30
0.0
 40
0.1650000000000004
100
AcDbArc
 50
46.00000000000005
 51
120.1147288754661
  0
LINE
  5
103E9
330
1F
100
AcDbEntity
  8
0
100
AcDbLine
 10
30.89449231972719
 20
-2.749818967627704
 30
0.0
 11
31.28228255184627
 21
-3.124303641764909
 31
0.0
  0
ARC
  5
103EA
330
1F
100
AcDbEntity
  8
0
100
AcDbCircle
 10
31.16766392072052
 20
-3.242994708820788
 30
0.0
 40
0.1650000000000047
100
AcDbArc
 50
331.8852711245321
 51
45.99999999999855
  0
ARC
  5
103EB
330
1F
100
AcDbEntity
  8
0
100
AcDbCircle
 10
34.53804458080821
 20
-3.17072342303564
 30
0.0
 40
0.1650000000000019
100
AcDbArc
 50
135.9999999999869
 51
151.885271124534
  0
LINE
  5
103EC
330
1F
100
AcDbEntity
  8
0
100
AcDbLine
 10
34.39251363121911
 20
-3.092969048806947
 30
0.0
 11
33.50672229033441
 21
-4.750882912245672
 31
0.0
  0
ARC
  5
103ED
330
1F
100
AcDbEntity
  8
0
100
AcDbCircle
 10
33.36119134074531
 20
-4.673128538016982
 30
0.0
 40
0.1650000000000002
100
AcDbArc
 50
300.1147288754661
 51
331.885271124534
  0
LINE
  5
103EE
330
1F
100
AcDbEntity
  8
0
100
AcDbLine
 10
33.44397730600537
 20
-4.815857245556705
 30
0.0
 11
31.90924857559907
 21
-5.706035553404635
 31
0.0
  0
ARC
  5
103EF
330
1F
100
AcDbEntity
  8
0
100
AcDbCircle
 10
31.826462610339
 20
-5.563306845864911
 30
0.0
 40
0.1650000000000015
100
AcDbArc
 50
226.0000000000007
 51
300.1147288754677
  0
LINE
  5
103F0
330
1F
100
AcDbEntity
  8
0
100
AcDbLine
 10
31.71184397921327
 20
-5.681997912920792
 30
0.0
 11
31.19991709481405
 21
-5.187635867134495
 31
0.0
  0
ARC
  5
103F1
330
1F
100
AcDbEntity
  8
0
100
AcDbCircle
 10
31.31453572593979
 20
-5.068944800078617
 30
0.0
 40
0.1650000000000047
100
AcDbArc
 50
151.8852711245356
 51
225.9999999999998
  0
LINE
  5
103F2
330
1F
100
AcDbEntity
  8
0
100
AcDbLine
 10
31.16900477635069
 20
-4.991190425849929
 30
0.0
 11
32.13017574304899
 21
-3.192190371014962
 31
0.0
  0
ARC
  5
103F3
330
1F
100
AcDbEntity
  8
0
100
AcDbCircle
 10
31.9846447934599
 20
-3.114435996786272
 30
0.0
 40
0.1650000000000002
100
AcDbArc
 50
331.885271124534
 51
45.99999999999943
  0
LINE
  5
103F4
330
1F
100
AcDbEntity
  8
0
100
AcDbLine
 10
32.09926342458563
 20
-2.995744929730393
 30
0.0
 11
31.35296684423015
 21
-2.275054699404173
 31
0.0
  0
ARC
  5
103F5
330
1F
100
AcDbEntity
  8
0
100
AcDbCircle
 10
31.46758547535588
 20
-2.156363632348297
 30
0.0
 40
0.165
100
AcDbArc
 50
151.8852711245356
 51
226.0000000000005
  0
LINE
  5
103F6
330
1F
100
AcDbEntity
  8
0
100
AcDbLine
 10
31.32205452576677
 20
-2.078609258119608
 30
0.0
 11
32.00957575316626
 21
-0.7917926889086676
 31
0.0
  0
ARC
  5
103F7
330
1F
100
AcDbEntity
  8
0
100
AcDbCircle
 10
32.15510670275536
 20
-0.8695470631373581
 30
0.0
 40
0.1650000000000112
100
AcDbArc
 50
136.0000000000015
 51
151.8852711245363
  0
LINE
  5
103F8
330
1F
100
AcDbEntity
  8
0
  6
Continuous
100
AcDbLine
 10
31.419397426244
 20
-0.1590808732889059
 30
0.0
 11
31.19016016399253
 21
-0.396463007400654
 31
0.0
  0
LINE
  5
103F9
330
1F
100
AcDbEntity
  8
0
  6
Continuous
100
AcDbLine
 10
28.80074127007557
 20
-2.870778704395603
 30
0.0
 11
28.34226674557263
 21
-3.345542972619114
 31
0.0
  0
LINE
  5
103FA
330
1F
100
AcDbEntity
  8
0
  6
Continuous
100
AcDbLine
 10
25.89077952551515
 20
-5.759919983790159
 30
0.0
 11
25.4323050010122
 21
-6.23468425201367
 31
0.0
  0
LINE
  5
103FB
330
1F
100
AcDbEntity
  8
0
  6
Continuous
100
AcDbLine
 10
37.64666329768449
 20
-6.631435608113729
 30
0.0
 11
38.10513782218747
 21
-6.156671339890172
 31
0.0
  0
CIRCLE
  5
103FD
330
1F
100
AcDbEntity
  8
0
  6
Continuous
100
AcDbCircle
 10
28.80888325653529
 20
-3.3373953143599
 30
0.0
 40
0.132
  0
CIRCLE
  5
103FE
330
1F
100
AcDbEntity
  8
0
  6
Continuous
100
AcDbCircle
 10
31.65677667495519
 20
-0.3883153491414469
 30
0.0
 40
0.132
  0
CIRCLE
  5
103FF
330
1F
100
AcDbEntity
  8
0
  6
Continuous
100
AcDbCircle
 10
34.50467009337509
 20
2.560764616077015
 30
0.0
 40
0.132
  0
CIRCLE
  5
10400
330
1F
100
AcDbEntity
  8
0
  6
Continuous
100
AcDbCircle
 10
37.29049518565554
 20
5.569783267120476
 30
0.0
 40
0.132
  0
CIRCLE
  5
10401
330
1F
100
AcDbEntity
  8
0
  6
Continuous
100
AcDbCircle
 10
25.89892151197487
 20
-6.226536593754453
 30
0.0
 40
0.132
  0
LINE
  5
10402
330
1F
100
AcDbEntity
  8
0
  6
Continuous
100
AcDbLine
 10
26.21177957174388
 20
-6.528660110181304
 30
0.0
 11
25.66154226326367
 21
-5.997302117901915
 31
0.0
  0
CIRCLE
  5
10407
330
1F
100
AcDbEntity
  8
0
  6
Continuous
100
AcDbCircle
 10
37.16375415760072
 20
-5.706341687247538
 30
0.0
 40
0.132
  0
CIRCLE
  5
10408
330
1F
100
AcDbEntity
  8
0
  6
Continuous
100
AcDbCircle
 10
37.63851842582422
 20
-6.164816211750482
 30
0.0
 40
0.132
  0
LINE
  5
10445
330
1F
100
AcDbEntity
  8
0
  6
Continuous
100
AcDbLine
 10
37.60335324542455
 20
5.267659750693619
 30
0.0
 11
37.05311593694434
 21
5.799017742973006
 31
0.0
  0
LINE
  5
10447
330
1F
100
AcDbEntity
  8
0
100
AcDbLine
 10
25.98122329271614
 20
-5.695899922662948
 30
0.0
 11
25.58816668095902
 21
-5.316329564825397
 31
0.0
  0
ARC
  5
10448
330
1F
100
AcDbEntity
  8
0
100
AcDbCircle
 10
25.70278531208475
 20
-5.197638497769521
 30
0.0
 40
0.165
100
AcDbArc
 50
151.8852711245339
 51
226.0000000000007
  0
LINE
  5
10449
330
1F
100
AcDbEntity
  8
0
100
AcDbLine
 10
25.55725436249566
 20
-5.119884123540826
 30
0.0
 11
26.36987178158497
 21
-3.598928089544898
 31
0.0
  0
ARC
  5
1044A
330
1F
100
AcDbEntity
  8
0
100
AcDbCircle
 10
26.22434083199588
 20
-3.521173715316198
 30
0.0
 40
0.1650000000000011
100
AcDbArc
 50
331.8852711245321
 51
45.99999999999925
  0
LINE
  5
1044B
330
1F
100
AcDbEntity
  8
0
100
AcDbLine
 10
26.33895946312161
 20
-3.402482648260321
 30
0.0
 11
25.46852623048609
 21
-2.561915046285161
 31
0.0
  0
ARC
  5
1044C
330
1F
100
AcDbEntity
  8
0
100
AcDbCircle
 10
25.58314486161182
 20
-2.443223979229284
 30
0.0
 40
0.165
100
AcDbArc
 50
151.8852711245358
 51
226.000000000001
  0
LINE
  5
1044D
330
1F
100
AcDbEntity
  8
0
100
AcDbLine
 10
25.43761391202271
 20
-2.365469605000598
 30
0.0
 11
26.39878487872102
 21
-0.5664695501656204
 31
0.0
  0
ARC
  5
1044E
330
1F
100
AcDbEntity
  8
0
100
AcDbCircle
 10
26.25325392913192
 20
-0.4887151759369253
 30
0.0
 40
0.165000000000003
100
AcDbArc
 50
331.8852711245335
 51
45.99999999999875
  0
LINE
  5
1044F
330
1F
100
AcDbEntity
  8
0
100
AcDbLine
 10
26.36787256025766
 20
-0.3700241088810487
 30
0.0
 11
25.49743932762201
 21
0.4705434930942388
 31
0.0
  0
ARC
  5
10450
330
1F
100
AcDbEntity
  8
0
100
AcDbCircle
 10
25.61205795874774
 20
0.5892345601501127
 30
0.0
 40
0.165
100
AcDbArc
 50
151.885271124532
 51
225.999999999999
  0
LINE
  5
10451
330
1F
100
AcDbEntity
  8
0
100
AcDbLine
 10
25.46652700915865
 20
0.6669889343788103
 30
0.0
 11
26.42769797585695
 21
2.465988989213776
 31
0.0
  0
ARC
  5
10452
330
1F
100
AcDbEntity
  8
0
100
AcDbCircle
 10
26.28216702626786
 20
2.543743363442474
 30
0.0
 40
0.1649999999999989
100
AcDbArc
 50
331.8852711245324
 51
46.00000000000008
  0
LINE
  5
10453
330
1F
100
AcDbEntity
  8
0
100
AcDbLine
 10
26.39678565739359
 20
2.662434430498346
 30
0.0
 11
25.52635242475793
 21
3.503002032473633
 31
0.0
  0
ARC
  5
10454
330
1F
100
AcDbEntity
  8
0
100
AcDbCircle
 10
25.64097105588366
 20
3.621693099529507
 30
0.0
 40
0.1649999999999953
100
AcDbArc
 50
151.885271124532
 51
226.0000000000001
  0
LINE
  5
10455
330
1F
100
AcDbEntity
  8
0
100
AcDbLine
 10
25.49544010629457
 20
3.699447473758204
 30
0.0
 11
26.30805752538378
 21
5.220403507754004
 31
0.0
  0
ARC
  5
10456
330
1F
100
AcDbEntity
  8
0
100
AcDbCircle
 10
26.16252657579468
 20
5.298157881982691
 30
0.0
 40
0.1650000000000015
100
AcDbArc
 50
331.8852711245353
 51
45.99999999999959
  0
LINE
  5
10457
330
1F
100
AcDbEntity
  8
0
100
AcDbLine
 10
26.27714520692042
 20
5.416848949038571
 30
0.0
 11
25.15843866972448
 21
6.497171294311993
 31
0.0
  0
LINE
  5
10458
330
1F
100
AcDbEntity
  8
0
100
AcDbLine
 10
31.61494180341649
 20
0.2621986935989685
 30
0.0
 11
31.51832321375574
 21
0.3555021810720462
 31
0.0
  0
ARC
  5
10459
330
1F
100
AcDbEntity
  8
0
100
AcDbCircle
 10
31.40370458263001
 20
0.2368111140161697
 30
0.0
 40
0.165
100
AcDbArc
 50
46.0000000000001
 51
120.1147288754661
  0
LINE
  5
1045A
330
1F
100
AcDbEntity
  8
0
100
AcDbLine
 10
31.32091861736995
 20
0.3795398215558924
 30
0.0
 11
30.05888008685285
 21
-0.3524718371019665
 31
0.0
  0
ARC
  5
1045B
330
1F
100
AcDbEntity
  8
0
100
AcDbCircle
 10
30.14166605211292
 20
-0.4952005446416896
 30
0.0
 40
0.164999999999998
100
AcDbArc
 50
120.1147288754659
 51
151.8852711245339
  0
LINE
  5
1045C
330
1F
100
AcDbEntity
  8
0
100
AcDbLine
 10
29.99613510252382
 20
-0.4174461704129988
 30
0.0
 11
29.16006032751542
 21
-1.982306760462803
 31
0.0
  0
ARC
  5
1045D
330
1F
100
AcDbEntity
  8
0
100
AcDbCircle
 10
29.30559127710451
 20
-2.060061134691498
 30
0.0
 40
0.1649999999999981
100
AcDbArc
 50
151.8852711245321
 51
225.9999999999983
  0
LINE
  5
1045E
330
1F
100
AcDbEntity
  8
0
100
AcDbLine
 10
29.19097264597878
 20
-2.178752201747365
 30
0.0
 11
29.22552290949948
 21
-2.212117003395933
 31
0.0
  0
LINE
  5
1045F
330
1F
100
AcDbEntity
  8
0
100
AcDbLine
 10
28.76704838499654
 20
-2.686881271619444
 30
0.0
 11
28.73249812147598
 21
-2.653516469971007
 31
0.0
  0
ARC
  5
10460
330
1F
100
AcDbEntity
  8
0
100
AcDbCircle
 10
28.61787949035024
 20
-2.772207537026878
 30
0.0
 40
0.1649999999999953
100
AcDbArc
 50
45.99999999999703
 51
120.1147288754625
  0
LINE
  5
10461
330
1F
100
AcDbEntity
  8
0
100
AcDbLine
 10
28.53509352509018
 20
-2.629478829487146
 30
0.0
 11
27.27305499457265
 21
-3.361490488145184
 31
0.0
  0
ARC
  5
10462
330
1F
100
AcDbEntity
  8
0
100
AcDbCircle
 10
27.35584095983271
 20
-3.504219195684911
 30
0.0
 40
0.1650000000000036
100
AcDbArc
 50
120.1147288754632
 51
151.8852711245334
  0
LINE
  5
10463
330
1F
100
AcDbEntity
  8
0
100
AcDbLine
 10
27.2103100102436
 20
-3.426464821456216
 30
0.0
 11
26.37423523523503
 21
-4.991325411506316
 31
0.0
  0
ARC
  5
10464
330
1F
100
AcDbEntity
  8
0
100
AcDbCircle
 10
26.51976618482413
 20
-5.069079785735011
 30
0.0
 40
0.1649999999999996
100
AcDbArc
 50
151.8852711245339
 51
226.0000000000001
  0
LINE
  5
10465
330
1F
100
AcDbEntity
  8
0
100
AcDbLine
 10
26.4051475536984
 20
-5.187770852790888
 30
0.0
 11
26.43969781721908
 21
-5.221135654439438
 31
0.0
  0
LINE
  5
10466
330
1F
100
AcDbEntity
  8
0
100
AcDbLine
 10
26.99994220643341
 20
5.114822755003637
 30
0.0
 11
26.31242097903393
 21
3.828006185792712
 31
0.0
  0
ARC
  5
10467
330
1F
100
AcDbEntity
  8
0
100
AcDbCircle
 10
26.45795192862303
 20
3.750251811564028
 30
0.0
 40
0.1649999999999947
100
AcDbArc
 50
151.8852711245363
 51
226.0000000000026
  0
LINE
  5
10468
330
1F
100
AcDbEntity
  8
0
100
AcDbLine
 10
26.3433332974973
 20
3.631560744508147
 30
0.0
 11
26.85526018189652
 21
3.137198698721858
 31
0.0
  0
ARC
  5
10469
330
1F
100
AcDbEntity
  8
0
100
AcDbCircle
 10
26.96987881302226
 20
3.255889765777737
 30
0.0
 40
0.165
100
AcDbArc
 50
226.0000000000001
 51
300.1147288754662
  0
LINE
  5
1046A
330
1F
100
AcDbEntity
  8
0
100
AcDbLine
 10
27.05266477828232
 20
3.113161058238014
 30
0.0
 11
28.31470330879936
 21
3.845172716895857
 31
0.0
  0
ARC
  5
1046B
330
1F
100
AcDbEntity
  8
0
100
AcDbCircle
 10
28.2319173435393
 20
3.987901424435582
 30
0.0
 40
0.165000000000003
100
AcDbArc
 50
300.1147288754662
 51
316.0000000000132
  0
ARC
  5
1046C
330
1F
100
AcDbEntity
  8
0
100
AcDbCircle
 10
27.1454731560225
 20
5.037068380774944
 30
0.0
 40
0.1650000000000002
100
AcDbArc
 50
135.9999999999871
 51
151.8852711245339
  0
LINE
  5
1046D
330
1F
100
AcDbEntity
  8
0
100
AcDbLine
 10
28.68814327450597
 20
0.2831023382429906
 30
0.0
 11
27.15341454409969
 21
-0.6070759696049479
 31
0.0
  0
ARC
  5
1046E
330
1F
100
AcDbEntity
  8
0
100
AcDbCircle
 10
27.23620050935975
 20
-0.7498046771446752
 30
0.0
 40
0.1650000000000028
100
AcDbArc
 50
120.1147288754664
 51
151.8852711245334
  0
LINE
  5
1046F
330
1F
100
AcDbEntity
  8
0
100
AcDbLine
 10
27.09066955977065
 20
-0.67205030291598
 30
0.0
 11
26.25459478476209
 21
-2.23691089296608
 31
0.0
  0
ARC
  5
10470
330
1F
100
AcDbEntity
  8
0
100
AcDbCircle
 10
26.40012573435118
 20
-2.314665267194775
 30
0.0
 40
0.1649999999999986
100
AcDbArc
 50
151.885271124532
 51
226.0000000000001
  0
LINE
  5
10471
330
1F
100
AcDbEntity
  8
0
100
AcDbLine
 10
26.28550710322545
 20
-2.433356334250647
 30
0.0
 11
26.67329733534451
 21
-2.807841008387849
 31
0.0
  0
ARC
  5
10472
330
1F
100
AcDbEntity
  8
0
100
AcDbCircle
 10
26.78791596647025
 20
-2.689149941331977
 30
0.0
 40
0.1649999999999953
100
AcDbArc
 50
225.9999999999998
 51
300.1147288754677
  0
LINE
  5
10473
330
1F
100
AcDbEntity
  8
0
100
AcDbLine
 10
26.8707019317303
 20
-2.831878648871695
 30
0.0
 11
28.4054306621366
 21
-1.941700341023752
 31
0.0
  0
ARC
  5
10474
330
1F
100
AcDbEntity
  8
0
100
AcDbCircle
 10
28.32264469687654
 20
-1.798971633484029
 30
0.0
 40
0.1650000000000027
100
AcDbArc
 50
300.1147288754662
 51
331.8852711245336
  0
LINE
  5
10475
330
1F
100
AcDbEntity
  8
0
100
AcDbLine
 10
28.46817564646564
 20
-1.87672600771272
 30
0.0
 11
29.30425042147419
 21
-0.3118654176626391
 31
0.0
  0
ARC
  5
10476
330
1F
100
AcDbEntity
  8
0
100
AcDbCircle
 10
29.15871947188509
 20
-0.2341110434339487
 30
0.0
 40
0.1650000000000004
100
AcDbArc
 50
331.8852711245336
 51
45.99999999999986
  0
LINE
  5
10477
330
1F
100
AcDbEntity
  8
0
100
AcDbLine
 10
29.27333810301083
 20
-0.1154199763780723
 30
0.0
 11
28.88554787089177
 21
0.2590646977591443
 31
0.0
  0
ARC
  5
10478
330
1F
100
AcDbEntity
  8
0
100
AcDbCircle
 10
28.77092923976604
 20
0.1403736307032585
 30
0.0
 40
0.1650000000000047
100
AcDbArc
 50
46.00000000000131
 51
120.1147288754682
  0
ARC
  5
10479
330
1F
100
AcDbEntity
  8
0
100
AcDbCircle
 10
28.72553191110368
 20
3.511223377457406
 30
0.0
 40
0.1650000000000019
100
AcDbArc
 50
300.1147288754662
 51
316.0000000000132
  0
LINE
  5
1047A
330
1F
100
AcDbEntity
  8
0
100
AcDbLine
 10
28.80831787636374
 20
3.368494669917681
 30
0.0
 11
27.18232764123561
 21
2.425382569774449
 31
0.0
  0
ARC
  5
1047B
330
1F
100
AcDbEntity
  8
0
100
AcDbCircle
 10
27.26511360649567
 20
2.282653862234726
 30
0.0
 40
0.1650000000000002
100
AcDbArc
 50
120.1147288754661
 51
151.8852711245339
  0
LINE
  5
1047C
330
1F
100
AcDbEntity
  8
0
100
AcDbLine
 10
27.11958265690657
 20
2.360408236463417
 30
0.0
 11
26.28350788189801
 21
0.7955476464133266
 31
0.0
  0
ARC
  5
1047D
330
1F
100
AcDbEntity
  8
0
100
AcDbCircle
 10
26.42903883148711
 20
0.7177932721846268
 30
0.0
 40
0.1650000000000015
100
AcDbArc
 50
151.885271124532
 51
225.9999999999992
  0
LINE
  5
1047E
330
1F
100
AcDbEntity
  8
0
100
AcDbLine
 10
26.31442020036138
 20
0.5991022051287528
 30
0.0
 11
26.8263470847606
 21
0.1047401593424662
 31
0.0
  0
ARC
  5
1047F
330
1F
100
AcDbEntity
  8
0
100
AcDbCircle
 10
26.94096571588634
 20
0.2234312263983473
 30
0.0
 40
0.1650000000000047
100
AcDbArc
 50
226.0000000000001
 51
300.1147288754646
  0
LINE
  5
10480
330
1F
100
AcDbEntity
  8
0
100
AcDbLine
 10
27.0237516811464
 20
0.0807025188586199
 30
0.0
 11
28.78811145077249
 21
1.104072162655494
 31
0.0
  0
ARC
  5
10481
330
1F
100
AcDbEntity
  8
0
100
AcDbCircle
 10
28.87089741603255
 20
0.9613434551157718
 30
0.0
 40
0.1650000000000002
100
AcDbArc
 50
46.00000000000066
 51
120.1147288754661
  0
LINE
  5
10482
330
1F
100
AcDbEntity
  8
0
100
AcDbLine
 10
28.98551604715828
 20
1.080034522171648
 30
0.0
 11
29.73181262751379
 21
0.3593442918454521
 31
0.0
  0
ARC
  5
10483
330
1F
100
AcDbEntity
  8
0
100
AcDbCircle
 10
29.84643125863952
 20
0.4780353589013238
 30
0.0
 40
0.165
100
AcDbArc
 50
225.9999999999996
 51
300.1147288754641
  0
LINE
  5
10484
330
1F
100
AcDbEntity
  8
0
100
AcDbLine
 10
29.92921722389958
 20
0.3353066513616012
 30
0.0
 11
31.19125575441665
 21
1.067318310019448
 31
0.0
  0
ARC
  5
10485
330
1F
100
AcDbEntity
  8
0
100
AcDbCircle
 10
31.10846978915659
 20
1.210047017559185
 30
0.0
 40
0.1650000000000112
100
AcDbArc
 50
300.1147288754639
 51
315.9999999999982
  0
LINE
  5
10486
330
1F
100
AcDbEntity
  8
0
  6
Continuous
100
AcDbLine
 10
31.84417906566795
 20
0.4995808277107213
 30
0.0
 11
31.61494180341648
 21
0.2621986935989732
 31
0.0
  0
LINE
  5
10487
330
1F
100
AcDbEntity
  8
0
  6
Continuous
100
AcDbLine
 10
29.22552290949952
 20
-2.212117003395976
 30
0.0
 11
28.76704838499658
 21
-2.686881271619486
 31
0.0
  0
LINE
  5
10488
330
1F
100
AcDbEntity
  8
0
  6
Continuous
100
AcDbLine
 10
26.43969781721908
 20
-5.221135654439438
 30
0.0
 11
25.98122329271614
 21
-5.695899922662948
 31
0.0
  0
LINE
  5
10489
330
1F
100
AcDbEntity
  8
0
100
AcDbLine
 10
37.83127149089974
 20
6.575184206435491
 30
0.0
 11
37.43821487914262
 21
6.954754564273039
 31
0.0
  0
ARC
  5
1048A
330
1F
100
AcDbEntity
  8
0
100
AcDbCircle
 10
37.32359624801689
 20
6.836063497217162
 30
0.0
 40
0.165
100
AcDbArc
 50
45.99999999999959
 51
120.1147288754661
  0
LINE
  5
1048B
330
1F
100
AcDbEntity
  8
0
100
AcDbLine
 10
37.24081028275683
 20
6.978792204756885
 30
0.0
 11
35.74914071301986
 21
6.113589210150007
 31
0.0
  0
ARC
  5
1048C
330
1F
100
AcDbEntity
  8
0
100
AcDbCircle
 10
35.66635474775979
 20
6.256317917689727
 30
0.0
 40
0.1650000000000011
100
AcDbArc
 50
226.0000000000007
 51
300.1147288754678
  0
LINE
  5
1048D
330
1F
100
AcDbEntity
  8
0
100
AcDbLine
 10
35.55173611663406
 20
6.137626850633851
 30
0.0
 11
34.68130288399853
 21
6.978194452609011
 31
0.0
  0
ARC
  5
1048E
330
1F
100
AcDbEntity
  8
0
100
AcDbCircle
 10
34.56668425287279
 20
6.859503385553135
 30
0.0
 40
0.165
100
AcDbArc
 50
45.99999999999899
 51
120.1147288754644
  0
LINE
  5
1048F
330
1F
100
AcDbEntity
  8
0
100
AcDbLine
 10
34.48389828761274
 20
7.00223209309286
 30
0.0
 11
32.71953851798664
 21
5.97886244929599
 31
0.0
  0
ARC
  5
10490
330
1F
100
AcDbEntity
  8
0
100
AcDbCircle
 10
32.63675255272658
 20
6.121591156835715
 30
0.0
 40
0.165000000000003
100
AcDbArc
 50
226.0000000000013
 51
300.114728875466
  0
LINE
  5
10491
330
1F
100
AcDbEntity
  8
0
100
AcDbLine
 10
32.52213392160084
 20
6.002900089779831
 30
0.0
 11
31.65170068896519
 21
6.843467691755119
 31
0.0
  0
ARC
  5
10492
330
1F
100
AcDbEntity
  8
0
100
AcDbCircle
 10
31.53708205783946
 20
6.724776624699238
 30
0.0
 40
0.165
100
AcDbArc
 50
46.00000000000117
 51
120.1147288754677
  0
LINE
  5
10493
330
1F
100
AcDbEntity
  8
0
100
AcDbLine
 10
31.45429609257939
 20
6.867505332238961
 30
0.0
 11
29.6899363229533
 21
5.844135688442086
 31
0.0
  0
ARC
  5
10494
330
1F
100
AcDbEntity
  8
0
100
AcDbCircle
 10
29.60715035769324
 20
5.986864395981806
 30
0.0
 40
0.1649999999999989
100
AcDbArc
 50
226.0000000000001
 51
300.1147288754678
  0
LINE
  5
10495
330
1F
100
AcDbEntity
  8
0
100
AcDbLine
 10
29.4925317265675
 20
5.868173328925932
 30
0.0
 11
28.62209849393185
 21
6.708740930901219
 31
0.0
  0
ARC
  5
10496
330
1F
100
AcDbEntity
  8
0
100
AcDbCircle
 10
28.50747986280611
 20
6.590049863845345
 30
0.0
 40
0.1649999999999953
100
AcDbArc
 50
46.00000000000008
 51
120.1147288754677
  0
LINE
  5
10497
330
1F
100
AcDbEntity
  8
0
100
AcDbLine
 10
28.42469389754605
 20
6.732778571385067
 30
0.0
 11
26.9330243278092
 21
5.867575576778291
 31
0.0
  0
ARC
  5
10498
330
1F
100
AcDbEntity
  8
0
100
AcDbCircle
 10
26.85023836254915
 20
6.010304284318015
 30
0.0
 40
0.1650000000000015
100
AcDbArc
 50
226.0000000000004
 51
300.1147288754645
  0
LINE
  5
10499
330
1F
100
AcDbEntity
  8
0
100
AcDbLine
 10
26.73561973142341
 20
5.891613217262134
 30
0.0
 11
25.61691319422746
 21
6.97193556253555
 31
0.0
  0
LINE
  5
1049A
330
1F
100
AcDbEntity
  8
0
100
AcDbLine
 10
32.07341632791942
 20
0.7369629618224717
 30
0.0
 11
31.97679773825867
 21
0.8302664492955493
 31
0.0
  0
ARC
  5
1049B
330
1F
100
AcDbEntity
  8
0
100
AcDbCircle
 10
32.0914163693844
 20
0.9489575163514281
 30
0.0
 40
0.165
100
AcDbArc
 50
151.8852711245339
 51
225.9999999999998
  0
LINE
  5
1049C
330
1F
100
AcDbEntity
  8
0
100
AcDbLine
 10
31.94588541979531
 20
1.026711890580118
 30
0.0
 11
32.63340664719479
 21
2.313528459791078
 31
0.0
  0
ARC
  5
1049D
330
1F
100
AcDbEntity
  8
0
100
AcDbCircle
 10
32.77893759678389
 20
2.235774085562388
 30
0.0
 40
0.164999999999998
100
AcDbArc
 50
120.1147288754661
 51
151.8852711245339
  0
LINE
  5
1049E
330
1F
100
AcDbEntity
  8
0
100
AcDbLine
 10
32.69615163152383
 20
2.378502793102111
 30
0.0
 11
34.23088036192985
 21
3.268681100949876
 31
0.0
  0
ARC
  5
1049F
330
1F
100
AcDbEntity
  8
0
100
AcDbCircle
 10
34.31366632718991
 20
3.125952393410157
 30
0.0
 40
0.1649999999999981
100
AcDbArc
 50
46.00000000000178
 51
120.1147288754677
  0
LINE
  5
104A0
330
1F
100
AcDbEntity
  8
0
100
AcDbLine
 10
34.42828495831565
 20
3.244643460466034
 30
0.0
 11
34.46283522183634
 21
3.211278658817463
 31
0.0
  0
LINE
  5
104A1
330
1F
100
AcDbEntity
  8
0
100
AcDbLine
 10
34.92130974633928
 20
3.686042927040973
 30
0.0
 11
34.8867594828187
 21
3.719407728689413
 31
0.0
  0
ARC
  5
104A2
330
1F
100
AcDbEntity
  8
0
100
AcDbCircle
 10
35.00137811394444
 20
3.838098795745294
 30
0.0
 40
0.1649999999999953
100
AcDbArc
 50
151.8852711245372
 51
226.000000000003
  0
LINE
  5
104A3
330
1F
100
AcDbEntity
  8
0
100
AcDbLine
 10
34.85584716435534
 20
3.915853169973975
 30
0.0
 11
35.54336839175498
 21
5.202669739185385
 31
0.0
  0
ARC
  5
104A4
330
1F
100
AcDbEntity
  8
0
100
AcDbCircle
 10
35.68889934134409
 20
5.1249153649567
 30
0.0
 40
0.1650000000000036
100
AcDbArc
 50
120.1147288754661
 51
151.8852711245372
  0
LINE
  5
104A5
330
1F
100
AcDbEntity
  8
0
100
AcDbLine
 10
35.60611337608403
 20
5.267644072496424
 30
0.0
 11
37.14084210649033
 21
6.157822380344374
 31
0.0
  0
ARC
  5
104A6
330
1F
100
AcDbEntity
  8
0
100
AcDbCircle
 10
37.22362807175038
 20
6.015093672804654
 30
0.0
 40
0.1649999999999996
100
AcDbArc
 50
45.99999999999985
 51
120.1147288754661
  0
LINE
  5
104A7
330
1F
100
AcDbEntity
  8
0
100
AcDbLine
 10
37.33824670287612
 20
6.13378473986053
 30
0.0
 11
37.37279696639681
 21
6.100419938211977
 31
0.0
  0
LINE
  5
104A8
330
1F
100
AcDbEntity
  8
0
100
AcDbLine
 10
27.06268719076249
 20
5.179797088314721
 30
0.0
 11
28.32472572127955
 21
5.911808746972568
 31
0.0
  0
ARC
  5
104A9
330
1F
100
AcDbEntity
  8
0
100
AcDbCircle
 10
28.40751168653961
 20
5.769080039432843
 30
0.0
 40
0.1649999999999947
100
AcDbArc
 50
45.99999999999729
 51
120.1147288754634
  0
LINE
  5
104AA
330
1F
100
AcDbEntity
  8
0
100
AcDbLine
 10
28.52213031766534
 20
5.887771106488712
 30
0.0
 11
29.03405720206456
 21
5.393409060702424
 31
0.0
  0
ARC
  5
104AB
330
1F
100
AcDbEntity
  8
0
100
AcDbCircle
 10
28.91943857093883
 20
5.274717993646548
 30
0.0
 40
0.165
100
AcDbArc
 50
331.885271124534
 51
45.99999999999985
  0
LINE
  5
104AC
330
1F
100
AcDbEntity
  8
0
100
AcDbLine
 10
29.06496952052792
 20
5.196963619417857
 30
0.0
 11
28.37744829312845
 21
3.910147050206943
 31
0.0
  0
ARC
  5
104AD
330
1F
100
AcDbEntity
  8
0
100
AcDbCircle
 10
28.23191734353935
 20
3.987901424435636
 30
0.0
 40
0.165000000000003
100
AcDbArc
 50
315.9999999999869
 51
331.8852711245336
  0
ARC
  5
104AE
330
1F
100
AcDbEntity
  8
0
100
AcDbCircle
 10
27.14547315602256
 20
5.037068380774998
 30
0.0
 40
0.1650000000000002
100
AcDbArc
 50
120.1147288754661
 51
136.000000000013
  0
LINE
  5
104AF
330
1F
100
AcDbEntity
  8
0
100
AcDbLine
 10
31.95038162160233
 20
3.661249037471308
 30
0.0
 11
32.78645639661089
 21
5.226109627521382
 31
0.0
  0
ARC
  5
104B0
330
1F
100
AcDbEntity
  8
0
100
AcDbCircle
 10
32.93198734619999
 20
5.148355253292687
 30
0.0
 40
0.1650000000000028
100
AcDbArc
 50
120.1147288754661
 51
151.8852711245339
  0
LINE
  5
104B1
330
1F
100
AcDbEntity
  8
0
100
AcDbLine
 10
32.84920138093993
 20
5.291083960832414
 30
0.0
 11
34.38393011134623
 21
6.181262268680354
 31
0.0
  0
ARC
  5
104B2
330
1F
100
AcDbEntity
  8
0
100
AcDbCircle
 10
34.46671607660629
 20
6.038533561140631
 30
0.0
 40
0.1649999999999986
100
AcDbArc
 50
45.99999999999986
 51
120.1147288754677
  0
LINE
  5
104B3
330
1F
100
AcDbEntity
  8
0
100
AcDbLine
 10
34.58133470773203
 20
6.157224628196505
 30
0.0
 11
34.96912493985108
 21
5.782739954059302
 31
0.0
  0
ARC
  5
104B4
330
1F
100
AcDbEntity
  8
0
100
AcDbCircle
 10
34.85450630872535
 20
5.664048887003429
 30
0.0
 40
0.1649999999999953
100
AcDbArc
 50
331.8852711245321
 51
46.0000000000001
  0
LINE
  5
104B5
330
1F
100
AcDbEntity
  8
0
100
AcDbLine
 10
35.00003725831444
 20
5.586294512774735
 30
0.0
 11
34.16396248330587
 21
4.021433922724639
 31
0.0
  0
ARC
  5
104B6
330
1F
100
AcDbEntity
  8
0
100
AcDbCircle
 10
34.01843153371678
 20
4.099188296953332
 30
0.0
 40
0.1650000000000027
100
AcDbArc
 50
300.114728875466
 51
331.8852711245336
  0
LINE
  5
104B7
330
1F
100
AcDbEntity
  8
0
100
AcDbLine
 10
34.10121749897684
 20
3.956459589413607
 30
0.0
 11
32.56648876857055
 21
3.066281281565681
 31
0.0
  0
ARC
  5
104B8
330
1F
100
AcDbEntity
  8
0
100
AcDbCircle
 10
32.48370280331049
 20
3.209009989105401
 30
0.0
 40
0.1650000000000004
100
AcDbArc
 50
226.0000000000001
 51
300.114728875466
  0
LINE
  5
104B9
330
1F
100
AcDbEntity
  8
0
100
AcDbLine
 10
32.36908417218476
 20
3.090318922049525
 30
0.0
 11
31.98129394006568
 21
3.46480359618673
 31
0.0
  0
ARC
  5
104BA
330
1F
100
AcDbEntity
  8
0
100
AcDbCircle
 10
32.09591257119143
 20
3.583494663242608
 30
0.0
 40
0.1650000000000047
100
AcDbArc
 50
151.885271124532
 51
225.9999999999984
  0
ARC
  5
104BB
330
1F
100
AcDbEntity
  8
0
100
AcDbCircle
 10
28.72553191110374
 20
3.51122337745746
 30
0.0
 40
0.1650000000000019
100
AcDbArc
 50
315.9999999999869
 51
331.885271124534
  0
LINE
  5
104BC
330
1F
100
AcDbEntity
  8
0
100
AcDbLine
 10
28.87106286069284
 20
3.433469003228767
 30
0.0
 11
29.75685420157754
 21
5.091382866667492
 31
0.0
  0
ARC
  5
104BD
330
1F
100
AcDbEntity
  8
0
100
AcDbCircle
 10
29.90238515116664
 20
5.013628492438802
 30
0.0
 40
0.1650000000000002
100
AcDbArc
 50
120.1147288754661
 51
151.8852711245339
  0
LINE
  5
104BE
330
1F
100
AcDbEntity
  8
0
100
AcDbLine
 10
29.81959918590658
 20
5.156357199978524
 30
0.0
 11
31.35432791631288
 21
6.046535507826456
 31
0.0
  0
ARC
  5
104BF
330
1F
100
AcDbEntity
  8
0
100
AcDbCircle
 10
31.43711388157295
 20
5.903806800286731
 30
0.0
 40
0.1650000000000015
100
AcDbArc
 50
46.00000000000071
 51
120.1147288754677
  0
LINE
  5
104C0
330
1F
100
AcDbEntity
  8
0
100
AcDbLine
 10
31.55173251269868
 20
6.022497867342613
 30
0.0
 11
32.0636593970979
 21
5.528135821556316
 31
0.0
  0
ARC
  5
104C1
330
1F
100
AcDbEntity
  8
0
100
AcDbCircle
 10
31.94904076597216
 20
5.409444754500437
 30
0.0
 40
0.1650000000000047
100
AcDbArc
 50
331.8852711245356
 51
45.99999999999985
  0
LINE
  5
104C2
330
1F
100
AcDbEntity
  8
0
100
AcDbLine
 10
32.09457171556126
 20
5.33169038027175
 30
0.0
 11
31.13340074886296
 21
3.532690325436782
 31
0.0
  0
ARC
  5
104C3
330
1F
100
AcDbEntity
  8
0
100
AcDbCircle
 10
31.27893169845206
 20
3.454935951208092
 30
0.0
 40
0.1650000000000002
100
AcDbArc
 50
151.8852711245339
 51
225.9999999999996
  0
LINE
  5
104C4
330
1F
100
AcDbEntity
  8
0
100
AcDbLine
 10
31.16431306732632
 20
3.336244884152213
 30
0.0
 11
31.91060964768181
 21
2.615554653825993
 31
0.0
  0
ARC
  5
104C5
330
1F
100
AcDbEntity
  8
0
100
AcDbCircle
 10
31.79599101655607
 20
2.496863586770117
 30
0.0
 40
0.165
100
AcDbArc
 50
331.8852711245356
 51
46.00000000000045
  0
LINE
  5
104C6
330
1F
100
AcDbEntity
  8
0
100
AcDbLine
 10
31.94152196614518
 20
2.419109212541429
 30
0.0
 11
31.25400073874569
 21
1.132292643330487
 31
0.0
  0
ARC
  5
104C7
330
1F
100
AcDbEntity
  8
0
100
AcDbCircle
 10
31.10846978915658
 20
1.210047017559178
 30
0.0
 40
0.1650000000000112
100
AcDbArc
 50
316.0000000000016
 51
331.8852711245363
  0
LINE
  5
104C8
330
1F
100
AcDbEntity
  8
0
  6
Continuous
100
AcDbLine
 10
31.84417906566796
 20
0.499580827710726
 30
0.0
 11
32.07341632791942
 21
0.7369629618224742
 31
0.0
  0
LINE
  5
104C9
330
1F
100
AcDbEntity
  8
0
  6
Continuous
100
AcDbLine
 10
34.46283522183639
 20
3.211278658817423
 30
0.0
 11
34.92130974633932
 21
3.686042927040933
 31
0.0
  0
LINE
  5
104CA
330
1F
100
AcDbEntity
  8
0
  6
Continuous
100
AcDbLine
 10
37.37279696639681
 20
6.100419938211977
 30
0.0
 11
37.83127149089974
 21
6.575184206435488
 31
0.0
  0
LINE
  5
104CB
330
1F
100
AcDbEntity
  8
0
  6
Continuous
100
AcDbLine
 10
25.61691319422746
 20
6.97193556253555
 30
0.0
 11
25.15843866972448
 21
6.497171294311993
 31
0.0
  0
CIRCLE
  5
104CC
330
1F
100
AcDbEntity
  8
0
  6
Continuous
100
AcDbCircle
 10
34.45469323537665
 20
3.677895268781719
 30
0.0
 40
0.132
  0
CIRCLE
  5
104CD
330
1F
100
AcDbEntity
  8
0
  6
Continuous
100
AcDbCircle
 10
31.60679981695676
 20
0.728815303563267
 30
0.0
 40
0.132
  0
CIRCLE
  5
104CE
330
1F
100
AcDbEntity
  8
0
  6
Continuous
100
AcDbCircle
 10
28.75890639853686
 20
-2.220264661655194
 30
0.0
 40
0.132
  0
CIRCLE
  5
104CF
330
1F
100
AcDbEntity
  8
0
  6
Continuous
100
AcDbCircle
 10
25.97308130625641
 20
-5.229283312698656
 30
0.0
 40
0.132
  0
CIRCLE
  5
104D0
330
1F
100
AcDbEntity
  8
0
  6
Continuous
100
AcDbCircle
 10
37.36465497993708
 20
6.567036548176272
 30
0.0
 40
0.132
  0
LINE
  5
104D1
330
1F
100
AcDbEntity
  8
0
  6
Continuous
100
AcDbLine
 10
37.05179692016808
 20
6.869160064603122
 30
0.0
 11
37.60203422864828
 21
6.337802072323733
 31
0.0
  0
CIRCLE
  5
104D2
330
1F
100
AcDbEntity
  8
0
  6
Continuous
100
AcDbCircle
 10
26.09982233431123
 20
6.046841641669359
 30
0.0
 40
0.132
  0
CIRCLE
  5
104D3
330
1F
100
AcDbEntity
  8
0
  6
Continuous
100
AcDbCircle
 10
25.62505806608772
 20
6.505316166172303
 30
0.0
 40
0.132
  0
LINE
  5
104D4
330
1F
100
AcDbEntity
  8
0
  6
Continuous
100
AcDbLine
 10
25.66022324648741
 20
-4.927159796271798
 30
0.0
 11
26.21046055496761
 21
-5.458517788551185
 31
0.0
  0
DIMENSION
  5
104F2
330
1F
100
AcDbEntity
  8
0
  6
Continuous
100
AcDbDimension
280
     0
  2
*D7
 10
25.06132504392838
 20
-5.876433071779405
 30
0.0
 11
30.98634914302017
 21
0.2591089927698178
 31
0.0
 70
    32
 71
     5
 42
17.05881437857526
 73
     0
 74
     0
 75
     0
  3
Standard
100
AcDbAlignedDimension
 13
37.28235319919581
 23
6.036399877084768
 33
0.0
 14
25.43230500101221
 24
-6.234684252013672
 34
0.0
 50
46.00000000000004
100
AcDbRotatedDimension
  0
ENDSEC
  0
SECTION
  2
OBJECTS
  0
DICTIONARY
  5
C
330
0
100
AcDbDictionary
281
     1
  3
ACAD_CIP_PREVIOUS_PRODUCT_INFO
350
1005A
  3
ACAD_COLOR
350
10036
  3
ACAD_DETAILVIEWSTYLE
350
10051
  3
ACAD_GROUP
350
D
  3
ACAD_LAYOUT
350
10037
  3
ACAD_MATERIAL
350
10004
  3
ACAD_MLEADERSTYLE
350
1004D
  3
ACAD_MLINESTYLE
350
17
  3
ACAD_PLOTSETTINGS
350
10054
  3
ACAD_PLOTSTYLENAME
350
10002
  3
ACAD_SCALELIST
350
1003B
  3
ACAD_SECTIONVIEWSTYLE
350
1004F
  3
ACAD_TABLESTYLE
350
10038
  3
ACAD_VISUALSTYLE
350
1001D
  3
ACDB_RECOMPOSE_DATA
350
10501
  3
AcDbVariableDictionary
350
100E4
  0
DICTIONARY
  5
1023B
330
2
100
AcDbDictionary
280
     1
281
     1
  3
ACAD_LAYERSTATES
360
1023C
  0
DICTIONARY
  5
100E2
330
50
100
AcDbDictionary
280
     1
281
     1
  3
ADSK_XREC_LAYER_RECONCILED
360
100E3
  0
DICTIONARY
  5
10065
330
1F
100
AcDbDictionary
280
     1
281
     1
  3
ACAD_SORTENTS
360
10066
  0
XRECORD
  5
1005A
102
{ACAD_REACTORS
330
C
102
}
330
C
100
AcDbXrecord
280
     1
300
ACD
300
2021
300
87393ACD_2021_0F
  0
DICTIONARY
  5
10036
102
{ACAD_REACTORS
330
C
102
}
330
C
100
AcDbDictionary
281
     1
  0
DICTIONARY
  5
10051
102
{ACAD_REACTORS
330
C
102
}
330
C
100
AcDbDictionary
281
     1
  3
Imperial24
350
10052
  0
DICTIONARY
  5
D
330
C
100
AcDbDictionary
281
     1
  0
DICTIONARY
  5
10037
102
{ACAD_REACTORS
330
C
102
}
330
C
100
AcDbDictionary
281
     1
  3
Layout1
350
10056
  3
Model
350
10055
  0
DICTIONARY
  5
10004
102
{ACAD_REACTORS
330
C
102
}
330
C
100
AcDbDictionary
281
     1
  3
ByBlock
350
1000D
  3
ByLayer
350
10005
  3
Global
350
10015
  0
DICTIONARY
  5
1004D
102
{ACAD_REACTORS
330
C
102
}
330
C
100
AcDbDictionary
281
     1
  3
Standard
350
1004E
  0
DICTIONARY
  5
17
330
C
100
AcDbDictionary
281
     1
  3
Standard
350
1003A
  0
DICTIONARY
  5
10054
102
{ACAD_REACTORS
330
C
102
}
330
C
100
AcDbDictionary
281
     1
  0
ACDBDICTIONARYWDFLT
  5
10002
102
{ACAD_REACTORS
330
C
102
}
330
C
100
AcDbDictionary
281
     1
  3
Normal
350
10003
100
AcDbDictionaryWithDefault
340
10003
  0
DICTIONARY
  5
1003B
102
{ACAD_REACTORS
330
C
102
}
330
C
100
AcDbDictionary
281
     1
  3
A0
350
1003C
  3
A1
350
1003D
  3
A2
350
1003E
  3
A3
350
1003F
  3
A4
350
10040
  3
A5
350
10041
  3
A6
350
10042
  3
A7
350
10043
  3
A8
350
10044
  3
A9
350
10045
  3
B0
350
10046
  3
B1
350
10047
  3
B2
350
10048
  3
B3
350
10049
  3
B4
350
1004A
  3
B5
350
1004B
  3
B6
350
1004C
  0
DICTIONARY
  5
1004F
102
{ACAD_REACTORS
330
C
102
}
330
C
100
AcDbDictionary
281
     1
  3
Imperial24
350
10050
  0
DICTIONARY
  5
10038
102
{ACAD_REACTORS
330
C
102
}
330
C
100
AcDbDictionary
281
     1
  3
Standard
350
10039
  0
DICTIONARY
  5
1001D
102
{ACAD_REACTORS
330
C
102
}
330
C
100
AcDbDictionary
281
     1
  3
2dWireframe
350
10023
  3
Basic
350
10022
  3
Brighten
350
10029
  3
ColorChange
350
1002D
  3
Conceptual
350
10026
  3
Dim
350
10028
  3
EdgeColorOff
350
10035
  3
Facepattern
350
1002C
  3
Flat
350
1001E
  3
FlatWithEdges
350
1001F
  3
Gouraud
350
10020
  3
GouraudWithEdges
350
10021
  3
Hidden
350
10025
  3
JitterOff
350
10033
  3
Linepattern
350
1002B
  3
OverhangOff
350
10034
  3
Realistic
350
10027
  3
Shaded
350
10032
  3
Shaded with edges
350
10031
  3
Shades of Gray
350
1002E
  3
Sketchy
350
1002F
  3
Thicken
350
1002A
  3
Wireframe
350
10024
  3
X-Ray
350
10030
  0
XRECORD
  5
10501
102
{ACAD_REACTORS
330
C
102
}
330
C
100
AcDbXrecord
280
     1
 90
        1
330
10039
  0
DICTIONARY
  5
100E4
102
{ACAD_REACTORS
330
C
102
}
330
C
100
AcDbDictionary
281
     1
  3
CANNOSCALE
350
100EA
  3
CMLEADERSTYLE
350
100E6
  3
CTABLESTYLE
350
100E5
  3
CVIEWDETAILSTYLE
350
100E7
  3
CVIEWSECTIONSTYLE
350
100E8
  3
LAYEREVAL
350
100EC
  3
LAYERNOTIFY
350
100ED
  3
LIGHTINGUNITS
350
100EB
  3
MSLTSCALE
350
100E9
  0
DICTIONARY
  5
1023C
102
{ACAD_REACTORS
330
1023B
102
}
330
1023B
100
AcDbDictionary
281
     1
  0
XRECORD
  5
100E3
102
{ACAD_REACTORS
330
100E2
102
}
330
100E2
100
AcDbXrecord
280
     1
290
     1
  0
SORTENTSTABLE
  5
10066
102
{ACAD_REACTORS
330
10065
102
}
330
10065
100
AcDbSortentsTable
330
1F
331
10233
  5
103AF
331
10235
  5
103B0
331
10237
  5
103B1
331
10253
  5
10227
331
10254
  5
10229
331
10255
  5
1022B
331
10256
  5
1022D
331
10257
  5
1022F
331
10258
  5
10231
331
10259
  5
10233
331
1025A
  5
10235
331
1025B
  5
10237
331
1025C
  5
10253
331
1025D
  5
10254
331
1025E
  5
10255
331
1025F
  5
10256
331
10260
  5
10257
331
10261
  5
10258
331
10262
  5
10259
331
10263
  5
1025A
331
102C0
  5
102B7
331
102C1
  5
102B8
331
102C2
  5
102B9
331
102C3
  5
102BA
331
102C4
  5
102BB
331
102C5
  5
102BC
331
102C6
  5
102BD
331
102C7
  5
102BE
331
102C8
  5
102BF
331
102C9
  5
102C0
331
102CA
  5
102C1
331
102CB
  5
102C2
331
102CC
  5
102C3
331
102CD
  5
102C4
331
10352
  5
10349
331
10353
  5
1034A
331
10354
  5
1034B
331
10355
  5
1034C
331
10356
  5
1034D
331
10357
  5
1034E
331
1035D
  5
10354
331
1035E
  5
10355
331
1035F
  5
10356
331
10360
  5
10357
331
10361
  5
10358
331
10362
  5
10359
331
10363
  5
1035A
331
10364
  5
1035B
331
10365
  5
1035C
331
10366
  5
1035D
331
10367
  5
1035E
331
10368
  5
1035F
331
10369
  5
10360
331
10371
  5
10368
331
10372
  5
10369
331
10373
  5
1036A
331
10374
  5
1036B
331
10375
  5
1036C
331
10376
  5
1036D
331
10377
  5
1036E
331
10378
  5
1036F
331
10379
  5
10370
331
1037A
  5
10371
331
1037B
  5
10372
331
1037C
  5
10373
331
1037D
  5
10374
331
103FD
  5
10400
331
103FE
  5
10401
331
103FF
  5
10402
331
10400
  5
10403
331
10401
  5
10404
331
10402
  5
10405
  0
ACDBDETAILVIEWSTYLE
  5
10052
102
{ACAD_REACTORS
330
10051
102
}
330
10051
100
AcDbModelDocViewStyle
 70
     0
  3
Imperial24
290
     0
300
Imperial24
 90
        0
100
AcDbDetailViewStyle
 70
     0
 71
     0
 90
        3
 71
     1
340
11
 62
   256
 40
0.24
340
0
 62
   256
 40
0.24
300

 40
0.36
280
     3
 71
     2
340
0
 90
       25
 62
   256
 71
     3
340
11
 62
   256
 40
0.24
 90
        1
 40
0.75
 90
        1
300
%<\AcVar ViewType \f "%tc1">% %<\AcVar ViewDetailId>%\PSCALE %<\AcVar ViewScale \f "%sn">%
 71
     4
340
0
 90
       25
 62
   256
340
0
 90
       25
 62
   256
280
     0
  0
LAYOUT
  5
10056
102
{ACAD_REACTORS
330
10037
102
}
330
10037
100
AcDbPlotSettings
  1

  2
Kyocera Ecosys M5526cdw_temp
  4

  6

 40
0.0
 41
0.0
 42
0.0
 43
0.0
 44
0.0
 45
0.0
 46
0.0
 47
0.0
 48
0.0
 49
0.0
140
0.0
141
0.0
142
1.0
143
1.0
 70
   688
 72
     0
 73
     0
 74
     5
  7

 75
    16
147
1.0
 76
     0
 77
     2
 78
   300
148
0.0
149
0.0
100
AcDbLayout
  1
Layout1
 70
     1
 71
     1
 10
0.0
 20
0.0
 11
12.0
 21
9.0
 12
0.0
 22
0.0
 32
0.0
 14
1.000000000000000E+20
 24
1.000000000000000E+20
 34
1.000000000000000E+20
 15
-1.000000000000000E+20
 25
-1.000000000000000E+20
 35
-1.000000000000000E+20
146
0.0
 13
0.0
 23
0.0
 33
0.0
 16
1.0
 26
0.0
 36
0.0
 17
0.0
 27
1.0
 37
0.0
 76
     0
330
1B
  0
LAYOUT
  5
10055
102
{ACAD_REACTORS
330
10037
102
}
330
10037
100
AcDbPlotSettings
  1

  2
Kyocera Ecosys M5526cdw_temp
  4

  6

 40
0.0
 41
0.0
 42
0.0
 43
0.0
 44
0.0
 45
0.0
 46
0.0
 47
0.0
 48
0.0
 49
0.0
140
0.0
141
0.0
142
1.0
143
1.0
 70
  1712
 72
     0
 73
     0
 74
     0
  7

 75
     0
147
1.0
 76
     0
 77
     2
 78
   300
148
0.0
149
0.0
100
AcDbLayout
  1
Model
 70
     1
 71
     0
 10
0.0
 20
0.0
 11
12.0
 21
9.0
 12
0.0
 22
0.0
 32
0.0
 14
0.0
 24
0.0
 34
0.0
 15
0.0
 25
0.0
 35
0.0
146
0.0
 13
0.0
 23
0.0
 33
0.0
 16
1.0
 26
0.0
 36
0.0
 17
0.0
 27
1.0
 37
0.0
 76
     0
330
1F
331
10059
  0
MATERIAL
  5
1000D
102
{ACAD_XDICTIONARY
360
1000E
102
}
102
{ACAD_REACTORS
330
10004
102
}
330
10004
100
AcDbMaterial
  1
ByBlock
 72
     0
 43
0.0208333333333333
 43
0.0
 43
0.0
 43
0.0
 43
0.0
 43
0.0208333333333333
 43
0.0
 43
0.0
 43
0.0
 43
0.0
 43
1.0
 43
0.0
 43
0.0
 43
0.0
 43
0.0
 43
1.0
 77
     0
 47
0.0208333333333333
 47
0.0
 47
0.0
 47
0.0
 47
0.0
 47
0.0208333333333333
 47
0.0
 47
0.0
 47
0.0
 47
0.0
 47
1.0
 47
0.0
 47
0.0
 47
0.0
 47
0.0
 47
1.0
171
     0
 49
0.0208333333333333
 49
0.0
 49
0.0
 49
0.0
 49
0.0
 49
0.0208333333333333
 49
0.0
 49
0.0
 49
0.0
 49
0.0
 49
1.0
 49
0.0
 49
0.0
 49
0.0
 49
0.0
 49
1.0
175
     0
142
0.0208333333333333
142
0.0
142
0.0
142
0.0
142
0.0
142
0.0208333333333333
142
0.0
142
0.0
142
0.0
142
0.0
142
1.0
142
0.0
142
0.0
142
0.0
142
0.0
142
1.0
179
     0
144
0.0208333333333333
144
0.0
144
0.0
144
0.0
144
0.0
144
0.0208333333333333
144
0.0
144
0.0
144
0.0
144
0.0
144
1.0
144
0.0
144
0.0
144
0.0
144
0.0
144
1.0
147
0.0208333333333333
147
0.0
147
0.0
147
0.0
147
0.0
147
0.0208333333333333
147
0.0
147
0.0
147
0.0
147
0.0
147
1.0
147
0.0
147
0.0
147
0.0
147
0.0
147
1.0
  0
MATERIAL
  5
10005
102
{ACAD_XDICTIONARY
360
10006
102
}
102
{ACAD_REACTORS
330
10004
102
}
330
10004
100
AcDbMaterial
  1
ByLayer
 72
     0
 43
0.0208333333333333
 43
0.0
 43
0.0
 43
0.0
 43
0.0
 43
0.0208333333333333
 43
0.0
 43
0.0
 43
0.0
 43
0.0
 43
1.0
 43
0.0
 43
0.0
 43
0.0
 43
0.0
 43
1.0
 77
     0
 47
0.0208333333333333
 47
0.0
 47
0.0
 47
0.0
 47
0.0
 47
0.0208333333333333
 47
0.0
 47
0.0
 47
0.0
 47
0.0
 47
1.0
 47
0.0
 47
0.0
 47
0.0
 47
0.0
 47
1.0
171
     0
 49
0.0208333333333333
 49
0.0
 49
0.0
 49
0.0
 49
0.0
 49
0.0208333333333333
 49
0.0
 49
0.0
 49
0.0
 49
0.0
 49
1.0
 49
0.0
 49
0.0
 49
0.0
 49
0.0
 49
1.0
175
     0
142
0.0208333333333333
142
0.0
142
0.0
142
0.0
142
0.0
142
0.0208333333333333
142
0.0
142
0.0
142
0.0
142
0.0
142
1.0
142
0.0
142
0.0
142
0.0
142
0.0
142
1.0
179
     0
144
0.0208333333333333
144
0.0
144
0.0
144
0.0
144
0.0
144
0.0208333333333333
144
0.0
144
0.0
144
0.0
144
0.0
144
1.0
144
0.0
144
0.0
144
0.0
144
0.0
144
1.0
147
0.0208333333333333
147
0.0
147
0.0
147
0.0
147
0.0
147
0.0208333333333333
147
0.0
147
0.0
147
0.0
147
0.0
147
1.0
147
0.0
147
0.0
147
0.0
147
0.0
147
1.0
  0
MATERIAL
  5
10015
102
{ACAD_XDICTIONARY
360
10016
102
}
102
{ACAD_REACTORS
330
10004
102
}
330
10004
100
AcDbMaterial
  1
Global
 72
     0
 43
0.0208333333333333
 43
0.0
 43
0.0
 43
0.0
 43
0.0
 43
0.0208333333333333
 43
0.0
 43
0.0
 43
0.0
 43
0.0
 43
1.0
 43
0.0
 43
0.0
 43
0.0
 43
0.0
 43
1.0
 77
     0
 47
0.0208333333333333
 47
0.0
 47
0.0
 47
0.0
 47
0.0
 47
0.0208333333333333
 47
0.0
 47
0.0
 47
0.0
 47
0.0
 47
1.0
 47
0.0
 47
0.0
 47
0.0
 47
0.0
 47
1.0
171
     0
 49
0.0208333333333333
 49
0.0
 49
0.0
 49
0.0
 49
0.0
 49
0.0208333333333333
 49
0.0
 49
0.0
 49
0.0
 49
0.0
 49
1.0
 49
0.0
 49
0.0
 49
0.0
 49
0.0
 49
1.0
175
     0
142
0.0208333333333333
142
0.0
142
0.0
142
0.0
142
0.0
142
0.0208333333333333
142
0.0
142
0.0
142
0.0
142
0.0
142
1.0
142
0.0
142
0.0
142
0.0
142
0.0
142
1.0
179
     0
144
0.0208333333333333
144
0.0
144
0.0
144
0.0
144
0.0
144
0.0208333333333333
144
0.0
144
0.0
144
0.0
144
0.0
144
1.0
144
0.0
144
0.0
144
0.0
144
0.0
144
1.0
147
0.0208333333333333
147
0.0
147
0.0
147
0.0
147
0.0
147
0.0208333333333333
147
0.0
147
0.0
147
0.0
147
0.0
147
1.0
147
0.0
147
0.0
147
0.0
147
0.0
147
1.0
  0
MLEADERSTYLE
  5
1004E
102
{ACAD_REACTORS
330
1004D
102
}
330
1004D
100
AcDbMLeaderStyle
179
     2
170
     2
171
     1
172
     0
 90
        2
 40
0.0
 41
0.0
173
     1
 91
-1056964608
340
14
 92
       -2
290
     1
 42
0.09
291
     1
 43
0.36
  3
Standard
 44
0.18
300

342
11
174
     1
178
     6
175
     1
176
     0
 93
-1056964608
 45
0.18
292
     0
297
     0
 46
0.18
 94
-1056964608
 47
1.0
 49
1.0
140
1.0
293
     1
141
0.0
294
     1
177
     0
142
1.0
295
     0
296
     0
143
0.125
271
     0
272
     9
273
     9
298
     0
  0
MLINESTYLE
  5
1003A
102
{ACAD_REACTORS
330
17
102
}
330
17
100
AcDbMlineStyle
  2
STANDARD
 70
     0
  3

 62
   256
 51
90.0
 52
90.0
 71
     2
 49
0.5
 62
   256
  6
BYLAYER
 49
-0.5
 62
   256
  6
BYLAYER
  0
ACDBPLACEHOLDER
  5
10003
102
{ACAD_REACTORS
330
10002
102
}
330
10002
  0
SCALE
  5
1003C
102
{ACAD_REACTORS
330
1003B
102
}
330
1003B
100
AcDbScale
 70
     0
300
1:1
140
1.0
141
1.0
290
     1
  0
SCALE
  5
1003D
102
{ACAD_REACTORS
330
1003B
102
}
330
1003B
100
AcDbScale
 70
     0
300
1/128" = 1'-0"
140
0.0078125
141
12.0
290
     0
  0
SCALE
  5
1003E
102
{ACAD_REACTORS
330
1003B
102
}
330
1003B
100
AcDbScale
 70
     0
300
1/64" = 1'-0"
140
0.015625
141
12.0
290
     0
  0
SCALE
  5
1003F
102
{ACAD_REACTORS
330
1003B
102
}
330
1003B
100
AcDbScale
 70
     0
300
1/32" = 1'-0"
140
0.03125
141
12.0
290
     0
  0
SCALE
  5
10040
102
{ACAD_REACTORS
330
1003B
102
}
330
1003B
100
AcDbScale
 70
     0
300
1/16" = 1'-0"
140
0.0625
141
12.0
290
     0
  0
SCALE
  5
10041
102
{ACAD_REACTORS
330
1003B
102
}
330
1003B
100
AcDbScale
 70
     0
300
3/32" = 1'-0"
140
0.09375
141
12.0
290
     0
  0
SCALE
  5
10042
102
{ACAD_REACTORS
330
1003B
102
}
330
1003B
100
AcDbScale
 70
     0
300
1/8" = 1'-0"
140
0.125
141
12.0
290
     0
  0
SCALE
  5
10043
102
{ACAD_REACTORS
330
1003B
102
}
330
1003B
100
AcDbScale
 70
     0
300
3/16" = 1'-0"
140
0.1875
141
12.0
290
     0
  0
SCALE
  5
10044
102
{ACAD_REACTORS
330
1003B
102
}
330
1003B
100
AcDbScale
 70
     0
300
1/4" = 1'-0"
140
0.25
141
12.0
290
     0
  0
SCALE
  5
10045
102
{ACAD_REACTORS
330
1003B
102
}
330
1003B
100
AcDbScale
 70
     0
300
3/8" = 1'-0"
140
0.375
141
12.0
290
     0
  0
SCALE
  5
10046
102
{ACAD_REACTORS
330
1003B
102
}
330
1003B
100
AcDbScale
 70
     0
300
1/2" = 1'-0"
140
0.5
141
12.0
290
     0
  0
SCALE
  5
10047
102
{ACAD_REACTORS
330
1003B
102
}
330
1003B
100
AcDbScale
 70
     0
300
3/4" = 1'-0"
140
0.75
141
12.0
290
     0
  0
SCALE
  5
10048
102
{ACAD_REACTORS
330
1003B
102
}
330
1003B
100
AcDbScale
 70
     0
300
1" = 1'-0"
140
1.0
141
12.0
290
     0
  0
SCALE
  5
10049
102
{ACAD_REACTORS
330
1003B
102
}
330
1003B
100
AcDbScale
 70
     0
300
1-1/2" = 1'-0"
140
1.5
141
12.0
290
     0
  0
SCALE
  5
1004A
102
{ACAD_REACTORS
330
1003B
102
}
330
1003B
100
AcDbScale
 70
     0
300
3" = 1'-0"
140
3.0
141
12.0
290
     0
  0
SCALE
  5
1004B
102
{ACAD_REACTORS
330
1003B
102
}
330
1003B
100
AcDbScale
 70
     0
300
6" = 1'-0"
140
6.0
141
12.0
290
     0
  0
SCALE
  5
1004C
102
{ACAD_REACTORS
330
1003B
102
}
330
1003B
100
AcDbScale
 70
     0
300
1'-0" = 1'-0"
140
12.0
141
12.0
290
     0
  0
ACDBSECTIONVIEWSTYLE
  5
10050
102
{ACAD_REACTORS
330
1004F
102
}
330
1004F
100
AcDbModelDocViewStyle
 70
     0
  3
Imperial24
290
     0
300
Imperial24
 90
        0
100
AcDbSectionViewStyle
 70
     0
 71
     0
 90
       78
 71
     1
340
11
 62
   256
 40
0.24
340
0
340
0
 62
   256
 40
0.24
300
I, O, Q, S, X, Z
 40
0.48
 90
        3
 40
0.18
 90
        1
 71
     2
340
0
 90
       25
 62
   256
340
0
 90
       50
 62
   256
 40
0.24
 40
0.0
 40
0.24
 71
     3
340
11
 62
   256
 40
0.24
 90
        1
 40
0.75
 90
        1
300
%<\AcVar ViewType \f "%tc1">% %<\AcVar ViewSectionStartId>%-%<\AcVar ViewSectionEndId>%\PSCALE %<\AcVar ViewScale \f "%sn">%
 71
     4
 62
   256
 62
   257
300
ANSI31
 40
1.0
 90
        0
290
     0
290
     0
 90
        6
 40
0.0
 40
1.570796326794896
 40
0.2617993877991494
 40
1.308996938995747
 40
-0.2617993877991494
 40
1.832595714594045
  0
TABLESTYLE
  5
10039
102
{ACAD_XDICTIONARY
360
10241
102
}
102
{ACAD_REACTORS
330
10038
102
}
330
10038
100
AcDbTableStyle
280
     0
  3
Standard
 70
     0
 71
     0
 40
0.06
 41
0.06
280
     0
281
     0
  7
STANDARD
140
0.18
170
     2
 62
     0
 63
     7
283
     0
 90
      512
 91
        0
  1

274
    -2
284
     1
 64
     0
275
    -2
285
     1
 65
     0
276
    -2
286
     1
 66
     0
277
    -2
287
     1
 67
     0
278
    -2
288
     1
 68
     0
279
    -2
289
     1
 69
     0
  7
STANDARD
140
0.25
170
     5
 62
     0
 63
     7
283
     0
 90
      512
 91
        0
  1

274
    -2
284
     1
 64
     0
275
    -2
285
     1
 65
     0
276
    -2
286
     1
 66
     0
277
    -2
287
     1
 67
     0
278
    -2
288
     1
 68
     0
279
    -2
289
     1
 69
     0
  7
STANDARD
140
0.18
170
     5
 62
     0
 63
     7
283
     0
 90
      512
 91
        0
  1

274
    -2
284
     1
 64
     0
275
    -2
285
     1
 65
     0
276
    -2
286
     1
 66
     0
277
    -2
287
     1
 67
     0
278
    -2
288
     1
 68
     0
279
    -2
289
     1
 69
     0
  0
VISUALSTYLE
  5
10023
102
{ACAD_REACTORS
330
1001D
102
}
330
1001D
100
AcDbVisualStyle
  2
2dWireframe
 70
     4
177
     3
291
     0
 70
    58
 90
        0
176
     1
 90
        2
176
     1
 90
        0
176
     1
 90
        0
176
     1
 40
0.6
176
     1
 40
30.0
176
     1
 62
     7
420
 16777215
176
     1
 90
        1
176
     1
 90
        4
176
     1
 62
     7
176
     1
 62
   257
176
     1
 90
        1
176
     1
 90
        1
176
     1
 40
1.0
176
     1
 90
        0
176
     1
 62
   257
176
     1
 40
1.0
176
     1
 90
        1
176
     1
 90
        6
176
     1
 90
        2
176
     1
 62
     7
176
     1
 90
        5
176
     1
 90
        0
176
     1
 90
        0
176
     1
290
     0
176
     1
 90
        1
176
     1
 40
0.0
176
     1
 90
        0
176
     1
290
     1
176
     1
290
     1
176
     1
290
     0
176
     1
290
     0
176
     1
290
     0
176
     1
290
     0
176
     1
290
     0
176
     1
290
     0
176
     1
290
     0
176
     1
 90
       50
176
     1
 40
0.0
176
     1
 40
1.0
176
     1
 90
        0
176
     1
 62
    18
176
     1
 90
       50
176
     1
 90
        3
176
     1
 62
     5
420
      255
176
     1
290
     0
176
     1
 90
       50
176
     1
 90
       50
176
     1
 90
       50
176
     1
290
     0
176
     1
 90
       50
176
     1
 62
   256
176
     0
 40
1.0
176
     0
 90
        2
176
     1
  1
strokes_ogs.tif
176
     1
290
     0
176
     1
 40
1.0
176
     1
 40
1.0
176
     1
  0
VISUALSTYLE
  5
10022
102
{ACAD_REACTORS
330
1001D
102
}
330
1001D
100
AcDbVisualStyle
  2
Basic
 70
     7
177
     3
291
     1
 70
    58
 90
        1
176
     1
 90
        0
176
     1
 90
        1
176
     1
 90
        0
176
     1
 40
0.6
176
     1
 40
30.0
176
     1
 62
     7
420
 16777215
176
     1
 90
        0
176
     1
 90
        4
176
     1
 62
     7
176
     1
 62
   257
176
     1
 90
        1
176
     1
 90
        1
176
     1
 40
1.0
176
     1
 90
        8
176
     1
 62
     7
176
     1
 40
1.0
176
     1
 90
        1
176
     1
 90
        6
176
     1
 90
        2
176
     1
 62
     7
176
     1
 90
        5
176
     1
 90
        0
176
     1
 90
        0
176
     1
290
     0
176
     1
 90
        1
176
     1
 40
0.0
176
     1
 90
        0
176
     1
290
     0
176
     1
290
     1
176
     1
290
     1
176
     1
290
     0
176
     1
290
     0
176
     1
290
     0
176
     1
290
     0
176
     1
290
     0
176
     1
290
     0
176
     1
 90
       50
176
     1
 40
0.0
176
     1
 40
1.0
176
     1
 90
        0
176
     1
 62
    18
176
     1
 90
       50
176
     1
 90
        3
176
     1
 62
     5
420
      255
176
     1
290
     0
176
     1
 90
       50
176
     1
 90
       50
176
     1
 90
       50
176
     1
290
     0
176
     1
 90
       50
176
     1
 62
   256
176
     0
 40
1.0
176
     0
 90
        2
176
     1
  1
strokes_ogs.tif
176
     1
290
     0
176
     1
 40
1.0
176
     1
 40
1.0
176
     1
  0
VISUALSTYLE
  5
10029
102
{ACAD_REACTORS
330
1001D
102
}
330
1001D
100
AcDbVisualStyle
  2
Brighten
 70
    12
177
     3
291
     1
 70
    58
 90
        2
176
     1
 90
        2
176
     1
 90
        0
176
     1
 90
        0
176
     1
 40
0.6
176
     1
 40
30.0
176
     1
 62
     7
420
 16777215
176
     1
 90
        1
176
     1
 90
        4
176
     1
 62
     7
176
     1
 62
   257
176
     1
 90
        1
176
     1
 90
        1
176
     1
 40
1.0
176
     1
 90
        8
176
     1
 62
     7
176
     1
 40
1.0
176
     1
 90
        1
176
     1
 90
        6
176
     1
 90
        2
176
     1
 62
     7
176
     1
 90
        5
176
     1
 90
        0
176
     1
 90
        0
176
     1
290
     0
176
     1
 90
        1
176
     1
 40
50.0
176
     1
 90
        0
176
     1
290
     0
176
     1
290
     1
176
     1
290
     1
176
     1
290
     0
176
     1
290
     0
176
     1
290
     0
176
     1
290
     0
176
     1
290
     0
176
     1
290
     0
176
     1
 90
       50
176
     1
 40
0.0
176
     1
 40
1.0
176
     1
 90
        0
176
     1
 62
    18
176
     1
 90
       50
176
     1
 90
        3
176
     1
 62
     5
420
      255
176
     1
290
     0
176
     1
 90
       50
176
     1
 90
       50
176
     1
 90
       50
176
     1
290
     0
176
     1
 90
       50
176
     1
 62
   256
176
     0
 40
1.0
176
     0
 90
        2
176
     1
  1
strokes_ogs.tif
176
     1
290
     0
176
     1
 40
1.0
176
     1
 40
1.0
176
     1
  0
VISUALSTYLE
  5
1002D
102
{ACAD_REACTORS
330
1001D
102
}
330
1001D
100
AcDbVisualStyle
  2
ColorChange
 70
    16
177
     3
291
     1
 70
    58
 90
        2
176
     1
 90
        2
176
     1
 90
        3
176
     1
 90
        0
176
     1
 40
0.6
176
     1
 40
30.0
176
     1
 62
     8
420
  8421504
176
     1
 90
        1
176
     1
 90
        4
176
     1
 62
     7
176
     1
 62
   257
176
     1
 90
        1
176
     1
 90
        1
176
     1
 40
1.0
176
     1
 90
        8
176
     1
 62
     8
420
  8421504
176
     1
 40
1.0
176
     1
 90
        1
176
     1
 90
        6
176
     1
 90
        2
176
     1
 62
     7
176
     1
 90
        5
176
     1
 90
        0
176
     1
 90
        0
176
     1
290
     0
176
     1
 90
        1
176
     1
 40
0.0
176
     1
 90
        0
176
     1
290
     0
176
     1
290
     1
176
     1
290
     1
176
     1
290
     0
176
     1
290
     0
176
     1
290
     0
176
     1
290
     0
176
     1
290
     0
176
     1
290
     0
176
     1
 90
       50
176
     1
 40
0.0
176
     1
 40
1.0
176
     1
 90
        0
176
     1
 62
    18
176
     1
 90
       50
176
     1
 90
        3
176
     1
 62
     5
420
      255
176
     1
290
     0
176
     1
 90
       50
176
     1
 90
       50
176
     1
 90
       50
176
     1
290
     0
176
     1
 90
       50
176
     1
 62
   256
176
     0
 40
1.0
176
     0
 90
        2
176
     1
  1
strokes_ogs.tif
176
     1
290
     0
176
     1
 40
1.0
176
     1
 40
1.0
176
     1
  0
VISUALSTYLE
  5
10026
102
{ACAD_REACTORS
330
1001D
102
}
330
1001D
100
AcDbVisualStyle
  2
Conceptual
 70
     9
177
     3
291
     0
 70
    58
 90
        3
176
     1
 90
        2
176
     1
 90
        0
176
     1
 90
        0
176
     1
 40
0.6
176
     1
 40
30.0
176
     1
 62
     7
420
 16777215
176
     1
 90
        2
176
     1
 90
        2
176
     1
 62
     7
176
     1
 62
   257
176
     1
 90
        1
176
     1
 90
        1
176
     1
 40
179.0
176
     1
 90
        8
176
     1
 62
     7
176
     1
 40
1.0
176
     1
 90
        1
176
     1
 90
        6
176
     1
 90
        2
176
     1
 62
     7
176
     1
 90
        3
176
     1
 90
        0
176
     1
 90
        0
176
     1
290
     0
176
     1
 90
        1
176
     1
 40
0.0
176
     1
 90
        0
176
     1
290
     0
176
     1
290
     1
176
     1
290
     1
176
     1
290
     0
176
     1
290
     0
176
     1
290
     0
176
     1
290
     0
176
     1
290
     0
176
     1
290
     0
176
     1
 90
       50
176
     1
 40
0.0
176
     1
 40
1.0
176
     1
 90
        0
176
     1
 62
    18
176
     1
 90
       50
176
     1
 90
        3
176
     1
 62
     5
420
      255
176
     1
290
     0
176
     1
 90
       50
176
     1
 90
       50
176
     1
 90
       50
176
     1
290
     0
176
     1
 90
       50
176
     1
 62
   256
176
     0
 40
1.0
176
     0
 90
        2
176
     1
  1
strokes_ogs.tif
176
     1
290
     0
176
     1
 40
1.0
176
     1
 40
1.0
176
     1
  0
VISUALSTYLE
  5
10028
102
{ACAD_REACTORS
330
1001D
102
}
330
1001D
100
AcDbVisualStyle
  2
Dim
 70
    11
177
     3
291
     1
 70
    58
 90
        2
176
     1
 90
        2
176
     1
 90
        0
176
     1
 90
        0
176
     1
 40
0.6
176
     1
 40
30.0
176
     1
 62
     7
420
 16777215
176
     1
 90
        1
176
     1
 90
        4
176
     1
 62
     7
176
     1
 62
   257
176
     1
 90
        1
176
     1
 90
        1
176
     1
 40
1.0
176
     1
 90
        8
176
     1
 62
     7
176
     1
 40
1.0
176
     1
 90
        1
176
     1
 90
        6
176
     1
 90
        2
176
     1
 62
     7
176
     1
 90
        5
176
     1
 90
        0
176
     1
 90
        0
176
     1
290
     0
176
     1
 90
        1
176
     1
 40
-50.0
176
     1
 90
        0
176
     1
290
     0
176
     1
290
     1
176
     1
290
     1
176
     1
290
     0
176
     1
290
     0
176
     1
290
     0
176
     1
290
     0
176
     1
290
     0
176
     1
290
     0
176
     1
 90
       50
176
     1
 40
0.0
176
     1
 40
1.0
176
     1
 90
        0
176
     1
 62
    18
176
     1
 90
       50
176
     1
 90
        3
176
     1
 62
     5
420
      255
176
     1
290
     0
176
     1
 90
       50
176
     1
 90
       50
176
     1
 90
       50
176
     1
290
     0
176
     1
 90
       50
176
     1
 62
   256
176
     0
 40
1.0
176
     0
 90
        2
176
     1
  1
strokes_ogs.tif
176
     1
290
     0
176
     1
 40
1.0
176
     1
 40
1.0
176
     1
  0
VISUALSTYLE
  5
10035
102
{ACAD_REACTORS
330
1001D
102
}
330
1001D
100
AcDbVisualStyle
  2
EdgeColorOff
 70
    22
177
     3
291
     1
 70
    58
 90
        2
176
     0
 90
        2
176
     0
 90
        0
176
     0
 90
        0
176
     0
 40
0.6
176
     0
 40
30.0
176
     0
 62
     7
420
 16777215
176
     0
 90
        1
176
     0
 90
        4
176
     0
 62
     7
176
     0
 62
   257
176
     0
 90
        1
176
     0
 90
        1
176
     0
 40
1.0
176
     0
 90
        8
176
     2
 62
     7
176
     0
 40
1.0
176
     0
 90
        1
176
     0
 90
        6
176
     0
 90
        2
176
     0
 62
     7
176
     0
 90
        5
176
     0
 90
        0
176
     0
 90
        0
176
     0
290
     0
176
     0
 90
        1
176
     0
 40
0.0
176
     0
 90
        0
176
     0
290
     0
176
     1
290
     1
176
     1
290
     1
176
     1
290
     0
176
     1
290
     0
176
     1
290
     0
176
     1
290
     0
176
     1
290
     0
176
     1
290
     0
176
     1
 90
       50
176
     0
 40
0.0
176
     0
 40
1.0
176
     0
 90
        0
176
     0
 62
    18
176
     0
 90
       50
176
     0
 90
        3
176
     0
 62
     5
420
      255
176
     0
290
     0
176
     1
 90
       50
176
     0
 90
       50
176
     0
 90
       50
176
     0
290
     0
176
     1
 90
       50
176
     0
 62
   256
176
     0
 40
1.0
176
     0
 90
        2
176
     0
  1
strokes_ogs.tif
176
     0
290
     0
176
     1
 40
1.0
176
     0
 40
1.0
176
     0
  0
VISUALSTYLE
  5
1002C
102
{ACAD_REACTORS
330
1001D
102
}
330
1001D
100
AcDbVisualStyle
  2
Facepattern
 70
    15
177
     3
291
     1
 70
    58
 90
        2
176
     1
 90
        2
176
     1
 90
        0
176
     1
 90
        0
176
     1
 40
0.6
176
     1
 40
30.0
176
     1
 62
     7
420
 16777215
176
     1
 90
        1
176
     1
 90
        4
176
     1
 62
     7
176
     1
 62
   257
176
     1
 90
        1
176
     1
 90
        1
176
     1
 40
1.0
176
     1
 90
        8
176
     1
 62
     7
176
     1
 40
1.0
176
     1
 90
        1
176
     1
 90
        6
176
     1
 90
        2
176
     1
 62
     7
176
     1
 90
        5
176
     1
 90
        0
176
     1
 90
        0
176
     1
290
     0
176
     1
 90
        1
176
     1
 40
0.0
176
     1
 90
        0
176
     1
290
     0
176
     1
290
     1
176
     1
290
     1
176
     1
290
     0
176
     1
290
     0
176
     1
290
     0
176
     1
290
     0
176
     1
290
     0
176
     1
290
     0
176
     1
 90
       50
176
     1
 40
0.0
176
     1
 40
1.0
176
     1
 90
        0
176
     1
 62
    18
176
     1
 90
       50
176
     1
 90
        3
176
     1
 62
     5
420
      255
176
     1
290
     0
176
     1
 90
       50
176
     1
 90
       50
176
     1
 90
       50
176
     1
290
     0
176
     1
 90
       50
176
     1
 62
   256
176
     0
 40
1.0
176
     0
 90
        2
176
     1
  1
strokes_ogs.tif
176
     1
290
     0
176
     1
 40
1.0
176
     1
 40
1.0
176
     1
  0
VISUALSTYLE
  5
1001E
102
{ACAD_REACTORS
330
1001D
102
}
330
1001D
100
AcDbVisualStyle
  2
Flat
 70
     0
177
     3
291
     1
 70
    58
 90
        2
176
     1
 90
        1
176
     1
 90
        1
176
     1
 90
        2
176
     1
 40
0.6
176
     1
 40
30.0
176
     1
 62
     7
420
 16777215
176
     1
 90
        0
176
     1
 90
        0
176
     1
 62
     7
176
     1
 62
   257
176
     1
 90
        1
176
     1
 90
        1
176
     1
 40
1.0
176
     1
 90
        8
176
     1
 62
     7
176
     1
 40
1.0
176
     1
 90
        1
176
     1
 90
        6
176
     1
 90
        2
176
     1
 62
     7
176
     1
 90
        5
176
     1
 90
        0
176
     1
 90
        0
176
     1
290
     0
176
     1
 90
       13
176
     1
 40
0.0
176
     1
 90
        0
176
     1
290
     0
176
     1
290
     1
176
     1
290
     1
176
     1
290
     0
176
     1
290
     0
176
     1
290
     0
176
     1
290
     0
176
     1
290
     0
176
     1
290
     0
176
     1
 90
       50
176
     1
 40
0.0
176
     1
 40
1.0
176
     1
 90
        0
176
     1
 62
    18
176
     1
 90
       50
176
     1
 90
        3
176
     1
 62
     5
420
      255
176
     1
290
     0
176
     1
 90
       50
176
     1
 90
       50
176
     1
 90
       50
176
     1
290
     0
176
     1
 90
       50
176
     1
 62
   256
176
     0
 40
1.0
176
     0
 90
        2
176
     1
  1
strokes_ogs.tif
176
     1
290
     0
176
     1
 40
1.0
176
     1
 40
1.0
176
     1
  0
VISUALSTYLE
  5
1001F
102
{ACAD_REACTORS
330
1001D
102
}
330
1001D
100
AcDbVisualStyle
  2
FlatWithEdges
 70
     1
177
     3
291
     1
 70
    58
 90
        2
176
     1
 90
        1
176
     1
 90
        1
176
     1
 90
        2
176
     1
 40
0.6
176
     1
 40
30.0
176
     1
 62
     7
420
 16777215
176
     1
 90
        1
176
     1
 90
        0
176
     1
 62
     7
176
     1
 62
   257
176
     1
 90
        1
176
     1
 90
        1
176
     1
 40
1.0
176
     1
 90
        0
176
     1
 62
   257
176
     1
 40
1.0
176
     1
 90
        1
176
     1
 90
        6
176
     1
 90
        2
176
     1
 62
     7
176
     1
 90
        5
176
     1
 90
        0
176
     1
 90
        0
176
     1
290
     0
176
     1
 90
       13
176
     1
 40
0.0
176
     1
 90
        0
176
     1
290
     0
176
     1
290
     1
176
     1
290
     1
176
     1
290
     0
176
     1
290
     0
176
     1
290
     0
176
     1
290
     0
176
     1
290
     0
176
     1
290
     0
176
     1
 90
       50
176
     1
 40
0.0
176
     1
 40
1.0
176
     1
 90
        0
176
     1
 62
    18
176
     1
 90
       50
176
     1
 90
        3
176
     1
 62
     5
420
      255
176
     1
290
     0
176
     1
 90
       50
176
     1
 90
       50
176
     1
 90
       50
176
     1
290
     0
176
     1
 90
       50
176
     1
 62
   256
176
     0
 40
1.0
176
     0
 90
        2
176
     1
  1
strokes_ogs.tif
176
     1
290
     0
176
     1
 40
1.0
176
     1
 40
1.0
176
     1
  0
VISUALSTYLE
  5
10020
102
{ACAD_REACTORS
330
1001D
102
}
330
1001D
100
AcDbVisualStyle
  2
Gouraud
 70
     2
177
     3
291
     1
 70
    58
 90
        2
176
     1
 90
        2
176
     1
 90
        1
176
     1
 90
        2
176
     1
 40
0.6
176
     1
 40
30.0
176
     1
 62
     7
420
 16777215
176
     1
 90
        0
176
     1
 90
        0
176
     1
 62
     7
176
     1
 62
   257
176
     1
 90
        1
176
     1
 90
        1
176
     1
 40
1.0
176
     1
 90
        0
176
     1
 62
     7
176
     1
 40
1.0
176
     1
 90
        1
176
     1
 90
        6
176
     1
 90
        2
176
     1
 62
     7
176
     1
 90
        5
176
     1
 90
        0
176
     1
 90
        0
176
     1
290
     0
176
     1
 90
       13
176
     1
 40
0.0
176
     1
 90
        0
176
     1
290
     0
176
     1
290
     1
176
     1
290
     1
176
     1
290
     0
176
     1
290
     0
176
     1
290
     0
176
     1
290
     0
176
     1
290
     0
176
     1
290
     0
176
     1
 90
       50
176
     1
 40
0.0
176
     1
 40
1.0
176
     1
 90
        0
176
     1
 62
    18
176
     1
 90
       50
176
     1
 90
        3
176
     1
 62
     5
420
      255
176
     1
290
     0
176
     1
 90
       50
176
     1
 90
       50
176
     1
 90
       50
176
     1
290
     0
176
     1
 90
       50
176
     1
 62
   256
176
     0
 40
1.0
176
     0
 90
        2
176
     1
  1
strokes_ogs.tif
176
     1
290
     0
176
     1
 40
1.0
176
     1
 40
1.0
176
     1
  0
VISUALSTYLE
  5
10021
102
{ACAD_REACTORS
330
1001D
102
}
330
1001D
100
AcDbVisualStyle
  2
GouraudWithEdges
 70
     3
177
     3
291
     1
 70
    58
 90
        2
176
     1
 90
        2
176
     1
 90
        1
176
     1
 90
        2
176
     1
 40
0.6
176
     1
 40
30.0
176
     1
 62
     7
420
 16777215
176
     1
 90
        1
176
     1
 90
        0
176
     1
 62
     7
176
     1
 62
   257
176
     1
 90
        1
176
     1
 90
        1
176
     1
 40
1.0
176
     1
 90
        0
176
     1
 62
   257
176
     1
 40
1.0
176
     1
 90
        1
176
     1
 90
        6
176
     1
 90
        2
176
     1
 62
     7
176
     1
 90
        5
176
     1
 90
        0
176
     1
 90
        0
176
     1
290
     0
176
     1
 90
       13
176
     1
 40
0.0
176
     1
 90
        0
176
     1
290
     0
176
     1
290
     1
176
     1
290
     1
176
     1
290
     0
176
     1
290
     0
176
     1
290
     0
176
     1
290
     0
176
     1
290
     0
176
     1
290
     0
176
     1
 90
       50
176
     1
 40
0.0
176
     1
 40
1.0
176
     1
 90
        0
176
     1
 62
    18
176
     1
 90
       50
176
     1
 90
        3
176
     1
 62
     5
420
      255
176
     1
290
     0
176
     1
 90
       50
176
     1
 90
       50
176
     1
 90
       50
176
     1
290
     0
176
     1
 90
       50
176
     1
 62
   256
176
     0
 40
1.0
176
     0
 90
        2
176
     1
  1
strokes_ogs.tif
176
     1
290
     0
176
     1
 40
1.0
176
     1
 40
1.0
176
     1
  0
VISUALSTYLE
  5
10025
102
{ACAD_REACTORS
330
1001D
102
}
330
1001D
100
AcDbVisualStyle
  2
Hidden
 70
     6
177
     3
291
     0
 70
    58
 90
        1
176
     1
 90
        2
176
     1
 90
        2
176
     1
 90
        0
176
     1
 40
0.6
176
     1
 40
30.0
176
     1
 62
     7
420
 16777215
176
     1
 90
        2
176
     1
 90
        2
176
     1
 62
     7
176
     1
 62
   257
176
     1
 90
        2
176
     1
 90
        1
176
     1
 40
40.0
176
     1
 90
        0
176
     1
 62
   257
176
     1
 40
1.0
176
     1
 90
        1
176
     1
 90
        6
176
     1
 90
        2
176
     1
 62
     7
176
     1
 90
        3
176
     1
 90
        0
176
     1
 90
        0
176
     1
290
     0
176
     1
 90
        1
176
     1
 40
0.0
176
     1
 90
        0
176
     1
290
     0
176
     1
290
     1
176
     1
290
     1
176
     1
290
     0
176
     1
290
     0
176
     1
290
     0
176
     1
290
     0
176
     1
290
     0
176
     1
290
     0
176
     1
 90
       50
176
     1
 40
0.0
176
     1
 40
1.0
176
     1
 90
        0
176
     1
 62
    18
176
     1
 90
       50
176
     1
 90
        3
176
     1
 62
     5
420
      255
176
     1
290
     0
176
     1
 90
       50
176
     1
 90
       50
176
     1
 90
       50
176
     1
290
     0
176
     1
 90
       50
176
     1
 62
   256
176
     0
 40
1.0
176
     0
 90
        2
176
     1
  1
strokes_ogs.tif
176
     1
290
     0
176
     1
 40
1.0
176
     1
 40
1.0
176
     1
  0
VISUALSTYLE
  5
10033
102
{ACAD_REACTORS
330
1001D
102
}
330
1001D
100
AcDbVisualStyle
  2
JitterOff
 70
    20
177
     3
291
     1
 70
    58
 90
        2
176
     0
 90
        2
176
     0
 90
        0
176
     0
 90
        0
176
     0
 40
0.6
176
     0
 40
30.0
176
     0
 62
     7
420
 16777215
176
     0
 90
        1
176
     0
 90
        4
176
     0
 62
     7
176
     0
 62
   257
176
     0
 90
        1
176
     0
 90
        1
176
     0
 40
1.0
176
     0
 90
       10
176
     2
 62
     7
176
     0
 40
1.0
176
     0
 90
        1
176
     0
 90
        6
176
     0
 90
        2
176
     0
 62
     7
176
     0
 90
        5
176
     0
 90
        0
176
     0
 90
        0
176
     0
290
     0
176
     0
 90
        1
176
     0
 40
0.0
176
     0
 90
        0
176
     0
290
     0
176
     1
290
     1
176
     1
290
     1
176
     1
290
     0
176
     1
290
     0
176
     1
290
     0
176
     1
290
     0
176
     1
290
     0
176
     1
290
     0
176
     1
 90
       50
176
     0
 40
0.0
176
     0
 40
1.0
176
     0
 90
        0
176
     0
 62
    18
176
     0
 90
       50
176
     0
 90
        3
176
     0
 62
     5
420
      255
176
     0
290
     0
176
     1
 90
       50
176
     0
 90
       50
176
     0
 90
       50
176
     0
290
     0
176
     1
 90
       50
176
     0
 62
   256
176
     0
 40
1.0
176
     0
 90
        2
176
     0
  1
strokes_ogs.tif
176
     0
290
     0
176
     1
 40
1.0
176
     0
 40
1.0
176
     0
  0
VISUALSTYLE
  5
1002B
102
{ACAD_REACTORS
330
1001D
102
}
330
1001D
100
AcDbVisualStyle
  2
Linepattern
 70
    14
177
     3
291
     1
 70
    58
 90
        2
176
     1
 90
        2
176
     1
 90
        0
176
     1
 90
        0
176
     1
 40
0.6
176
     1
 40
30.0
176
     1
 62
     7
420
 16777215
176
     1
 90
        1
176
     1
 90
        4
176
     1
 62
     7
176
     1
 62
   257
176
     1
 90
        7
176
     1
 90
        7
176
     1
 40
1.0
176
     1
 90
        8
176
     1
 62
     7
176
     1
 40
1.0
176
     1
 90
        1
176
     1
 90
        6
176
     1
 90
        2
176
     1
 62
     7
176
     1
 90
        5
176
     1
 90
        0
176
     1
 90
        0
176
     1
290
     0
176
     1
 90
        1
176
     1
 40
0.0
176
     1
 90
        0
176
     1
290
     0
176
     1
290
     1
176
     1
290
     1
176
     1
290
     0
176
     1
290
     0
176
     1
290
     0
176
     1
290
     0
176
     1
290
     0
176
     1
290
     0
176
     1
 90
       50
176
     1
 40
0.0
176
     1
 40
1.0
176
     1
 90
        0
176
     1
 62
    18
176
     1
 90
       50
176
     1
 90
        3
176
     1
 62
     5
420
      255
176
     1
290
     0
176
     1
 90
       50
176
     1
 90
       50
176
     1
 90
       50
176
     1
290
     0
176
     1
 90
       50
176
     1
 62
   256
176
     0
 40
1.0
176
     0
 90
        2
176
     1
  1
strokes_ogs.tif
176
     1
290
     0
176
     1
 40
1.0
176
     1
 40
1.0
176
     1
  0
VISUALSTYLE
  5
10034
102
{ACAD_REACTORS
330
1001D
102
}
330
1001D
100
AcDbVisualStyle
  2
OverhangOff
 70
    21
177
     3
291
     1
 70
    58
 90
        2
176
     0
 90
        2
176
     0
 90
        0
176
     0
 90
        0
176
     0
 40
0.6
176
     0
 40
30.0
176
     0
 62
     7
420
 16777215
176
     0
 90
        1
176
     0
 90
        4
176
     0
 62
     7
176
     0
 62
   257
176
     0
 90
        1
176
     0
 90
        1
176
     0
 40
1.0
176
     0
 90
        9
176
     2
 62
     7
176
     0
 40
1.0
176
     0
 90
        1
176
     0
 90
        6
176
     0
 90
        2
176
     0
 62
     7
176
     0
 90
        5
176
     0
 90
        0
176
     0
 90
        0
176
     0
290
     0
176
     0
 90
        1
176
     0
 40
0.0
176
     0
 90
        0
176
     0
290
     0
176
     1
290
     1
176
     1
290
     1
176
     1
290
     0
176
     1
290
     0
176
     1
290
     0
176
     1
290
     0
176
     1
290
     0
176
     1
290
     0
176
     1
 90
       50
176
     0
 40
0.0
176
     0
 40
1.0
176
     0
 90
        0
176
     0
 62
    18
176
     0
 90
       50
176
     0
 90
        3
176
     0
 62
     5
420
      255
176
     0
290
     0
176
     1
 90
       50
176
     0
 90
       50
176
     0
 90
       50
176
     0
290
     0
176
     1
 90
       50
176
     0
 62
   256
176
     0
 40
1.0
176
     0
 90
        2
176
     0
  1
strokes_ogs.tif
176
     0
290
     0
176
     1
 40
1.0
176
     0
 40
1.0
176
     0
  0
VISUALSTYLE
  5
10027
102
{ACAD_REACTORS
330
1001D
102
}
330
1001D
100
AcDbVisualStyle
  2
Realistic
 70
     8
177
     3
291
     0
 70
    58
 90
        2
176
     1
 90
        3
176
     1
 90
        0
176
     1
 90
        2
176
     1
 40
0.6
176
     1
 40
30.0
176
     1
 62
     7
420
 16777215
176
     1
 90
        0
176
     1
 90
        0
176
     1
 62
     7
176
     1
 62
   257
176
     1
 90
        1
176
     1
 90
        1
176
     1
 40
1.0
176
     1
 90
        8
176
     1
 62
   257
176
     1
 40
1.0
176
     1
 90
        1
176
     1
 90
        6
176
     1
 90
        2
176
     1
 62
     7
176
     1
 90
        3
176
     1
 90
        0
176
     1
 90
        0
176
     1
290
     0
176
     1
 90
       13
176
     1
 40
0.0
176
     1
 90
        0
176
     1
290
     0
176
     1
290
     1
176
     1
290
     1
176
     1
290
     0
176
     1
290
     0
176
     1
290
     0
176
     1
290
     0
176
     1
290
     0
176
     1
290
     0
176
     1
 90
       50
176
     1
 40
0.0
176
     1
 40
1.0
176
     1
 90
        0
176
     1
 62
    18
176
     1
 90
       50
176
     1
 90
        3
176
     1
 62
     5
420
      255
176
     1
290
     0
176
     1
 90
       50
176
     1
 90
       50
176
     1
 90
       50
176
     1
290
     0
176
     1
 90
       50
176
     1
 62
   256
176
     0
 40
1.0
176
     0
 90
        2
176
     1
  1
strokes_ogs.tif
176
     1
290
     0
176
     1
 40
1.0
176
     1
 40
1.0
176
     1
  0
VISUALSTYLE
  5
10032
102
{ACAD_REACTORS
330
1001D
102
}
330
1001D
100
AcDbVisualStyle
  2
Shaded
 70
    27
177
     3
291
     0
 70
    58
 90
        2
176
     1
 90
        2
176
     1
 90
        1
176
     1
 90
        2
176
     1
 40
0.6
176
     1
 40
30.0
176
     1
 62
     7
420
 16777215
176
     1
 90
        0
176
     1
 90
        4
176
     1
 62
     7
176
     1
 62
   257
176
     1
 90
        1
176
     1
 90
        1
176
     1
 40
1.0
176
     1
 90
        8
176
     1
 62
   257
176
     1
 40
1.0
176
     1
 90
        1
176
     1
 90
        6
176
     1
 90
        2
176
     1
 62
     8
420
  7895160
176
     1
 90
        3
176
     1
 90
        0
176
     1
 90
        0
176
     1
290
     0
176
     1
 90
        5
176
     1
 40
0.0
176
     1
 90
        0
176
     1
290
     0
176
     1
290
     1
176
     1
290
     1
176
     1
290
     0
176
     1
290
     0
176
     1
290
     0
176
     1
290
     0
176
     1
290
     0
176
     1
290
     0
176
     1
 90
       50
176
     1
 40
0.0
176
     1
 40
1.0
176
     1
 90
        0
176
     1
 62
    18
176
     1
 90
       50
176
     1
 90
        3
176
     1
 62
     5
420
      255
176
     1
290
     0
176
     1
 90
       50
176
     1
 90
       50
176
     1
 90
       50
176
     1
290
     0
176
     1
 90
       50
176
     1
 62
   256
176
     0
 40
1.0
176
     0
 90
        2
176
     1
  1
strokes_ogs.tif
176
     1
290
     0
176
     1
 40
1.0
176
     1
 40
1.0
176
     1
  0
VISUALSTYLE
  5
10031
102
{ACAD_REACTORS
330
1001D
102
}
330
1001D
100
AcDbVisualStyle
  2
Shaded with edges
 70
    26
177
     3
291
     0
 70
    58
 90
        2
176
     1
 90
        2
176
     1
 90
        1
176
     1
 90
        2
176
     1
 40
0.6
176
     1
 40
30.0
176
     1
 62
     7
420
 16777215
176
     1
 90
        1
176
     1
 90
        2
176
     1
 62
     7
176
     1
 62
   257
176
     1
 90
        2
176
     1
 90
        1
176
     1
 40
1.0
176
     1
 90
        8
176
     1
 62
   257
176
     1
 40
1.0
176
     1
 90
        1
176
     1
 90
        6
176
     1
 90
        2
176
     1
 62
     7
176
     1
 90
        3
176
     1
 90
        0
176
     1
 90
        0
176
     1
290
     0
176
     1
 90
        5
176
     1
 40
0.0
176
     1
 90
        0
176
     1
290
     0
176
     1
290
     1
176
     1
290
     1
176
     1
290
     0
176
     1
290
     0
176
     1
290
     0
176
     1
290
     0
176
     1
290
     0
176
     1
290
     0
176
     1
 90
       50
176
     1
 40
0.0
176
     1
 40
1.0
176
     1
 90
        0
176
     1
 62
    18
176
     1
 90
       50
176
     1
 90
        3
176
     1
 62
     5
420
      255
176
     1
290
     0
176
     1
 90
       50
176
     1
 90
       50
176
     1
 90
       50
176
     1
290
     0
176
     1
 90
       50
176
     1
 62
   256
176
     0
 40
1.0
176
     0
 90
        2
176
     1
  1
strokes_ogs.tif
176
     1
290
     0
176
     1
 40
1.0
176
     1
 40
1.0
176
     1
  0
VISUALSTYLE
  5
1002E
102
{ACAD_REACTORS
330
1001D
102
}
330
1001D
100
AcDbVisualStyle
  2
Shades of Gray
 70
    23
177
     3
291
     0
 70
    58
 90
        2
176
     1
 90
        2
176
     1
 90
        3
176
     1
 90
        0
176
     1
 40
0.6
176
     1
 40
30.0
176
     1
 62
     7
420
 16777215
176
     1
 90
        2
176
     1
 90
        2
176
     1
 62
     7
176
     1
 62
     7
176
     1
 90
        1
176
     1
 90
        1
176
     1
 40
40.0
176
     1
 90
        8
176
     1
 62
     7
176
     1
 40
1.0
176
     1
 90
        1
176
     1
 90
        6
176
     1
 90
        2
176
     1
 62
     7
176
     1
 90
        3
176
     1
 90
        0
176
     1
 90
        0
176
     1
290
     0
176
     1
 90
        1
176
     1
 40
0.0
176
     1
 90
        0
176
     1
290
     0
176
     1
290
     1
176
     1
290
     1
176
     1
290
     0
176
     1
290
     0
176
     1
290
     0
176
     1
290
     0
176
     1
290
     0
176
     1
290
     0
176
     1
 90
       50
176
     1
 40
0.0
176
     1
 40
1.0
176
     1
 90
        0
176
     1
 62
    18
176
     1
 90
       50
176
     1
 90
        3
176
     1
 62
     5
420
      255
176
     1
290
     0
176
     1
 90
       50
176
     1
 90
       50
176
     1
 90
       50
176
     1
290
     0
176
     1
 90
       50
176
     1
 62
   256
176
     0
 40
1.0
176
     0
 90
        2
176
     1
  1
strokes_ogs.tif
176
     1
290
     0
176
     1
 40
1.0
176
     1
 40
1.0
176
     1
  0
VISUALSTYLE
  5
1002F
102
{ACAD_REACTORS
330
1001D
102
}
330
1001D
100
AcDbVisualStyle
  2
Sketchy
 70
    24
177
     3
291
     0
 70
    58
 90
        1
176
     1
 90
        2
176
     1
 90
        2
176
     1
 90
        0
176
     1
 40
0.6
176
     1
 40
30.0
176
     1
 62
     7
420
 16777215
176
     1
 90
        2
176
     1
 90
        2
176
     1
 62
     7
176
     1
 62
     7
176
     1
 90
        1
176
     1
 90
        1
176
     1
 40
40.0
176
     1
 90
       11
176
     1
 62
     7
176
     1
 40
1.0
176
     1
 90
        1
176
     1
 90
        6
176
     1
 90
        2
176
     1
 62
     7
176
     1
 90
        6
176
     1
 90
        0
176
     1
 90
        0
176
     1
290
     0
176
     1
 90
        1
176
     1
 40
0.0
176
     1
 90
        0
176
     1
290
     0
176
     1
290
     1
176
     1
290
     1
176
     1
290
     0
176
     1
290
     0
176
     1
290
     0
176
     1
290
     0
176
     1
290
     0
176
     1
290
     0
176
     1
 90
       50
176
     1
 40
0.0
176
     1
 40
1.0
176
     1
 90
        0
176
     1
 62
    18
176
     1
 90
       50
176
     1
 90
        3
176
     1
 62
     5
420
      255
176
     1
290
     0
176
     1
 90
       50
176
     1
 90
       50
176
     1
 90
       50
176
     1
290
     0
176
     1
 90
       50
176
     1
 62
   256
176
     0
 40
1.0
176
     0
 90
        2
176
     1
  1
strokes_ogs.tif
176
     1
290
     0
176
     1
 40
1.0
176
     1
 40
1.0
176
     1
  0
VISUALSTYLE
  5
1002A
102
{ACAD_REACTORS
330
1001D
102
}
330
1001D
100
AcDbVisualStyle
  2
Thicken
 70
    13
177
     3
291
     1
 70
    58
 90
        2
176
     1
 90
        2
176
     1
 90
        0
176
     1
 90
        0
176
     1
 40
0.6
176
     1
 40
30.0
176
     1
 62
     7
420
 16777215
176
     1
 90
        1
176
     1
 90
        4
176
     1
 62
     7
176
     1
 62
   257
176
     1
 90
        1
176
     1
 90
        1
176
     1
 40
1.0
176
     1
 90
       12
176
     1
 62
     7
176
     1
 40
1.0
176
     1
 90
        1
176
     1
 90
        6
176
     1
 90
        2
176
     1
 62
     7
176
     1
 90
        5
176
     1
 90
        0
176
     1
 90
        0
176
     1
290
     0
176
     1
 90
        1
176
     1
 40
0.0
176
     1
 90
        0
176
     1
290
     0
176
     1
290
     1
176
     1
290
     1
176
     1
290
     0
176
     1
290
     0
176
     1
290
     0
176
     1
290
     0
176
     1
290
     0
176
     1
290
     0
176
     1
 90
       50
176
     1
 40
0.0
176
     1
 40
1.0
176
     1
 90
        0
176
     1
 62
    18
176
     1
 90
       50
176
     1
 90
        3
176
     1
 62
     5
420
      255
176
     1
290
     0
176
     1
 90
       50
176
     1
 90
       50
176
     1
 90
       50
176
     1
290
     0
176
     1
 90
       50
176
     1
 62
   256
176
     0
 40
1.0
176
     0
 90
        2
176
     1
  1
strokes_ogs.tif
176
     1
290
     0
176
     1
 40
1.0
176
     1
 40
1.0
176
     1
  0
VISUALSTYLE
  5
10024
102
{ACAD_REACTORS
330
1001D
102
}
330
1001D
100
AcDbVisualStyle
  2
Wireframe
 70
     5
177
     3
291
     0
 70
    58
 90
        0
176
     1
 90
        2
176
     1
 90
        0
176
     1
 90
        0
176
     1
 40
0.6
176
     1
 40
30.0
176
     1
 62
     7
420
 16777215
176
     1
 90
        1
176
     1
 90
        4
176
     1
 62
     7
176
     1
 62
   257
176
     1
 90
        1
176
     1
 90
        1
176
     1
 40
1.0
176
     1
 90
        0
176
     1
 62
   257
176
     1
 40
1.0
176
     1
 90
        1
176
     1
 90
        6
176
     1
 90
        2
176
     1
 62
     7
176
     1
 90
        3
176
     1
 90
        0
176
     1
 90
        0
176
     1
290
     0
176
     1
 90
        1
176
     1
 40
0.0
176
     1
 90
        0
176
     1
290
     0
176
     1
290
     1
176
     1
290
     1
176
     1
290
     0
176
     1
290
     0
176
     1
290
     0
176
     1
290
     0
176
     1
290
     0
176
     1
290
     0
176
     1
 90
       50
176
     1
 40
0.0
176
     1
 40
1.0
176
     1
 90
        0
176
     1
 62
    18
176
     1
 90
       50
176
     1
 90
        3
176
     1
 62
     5
420
      255
176
     1
290
     0
176
     1
 90
       50
176
     1
 90
       50
176
     1
 90
       50
176
     1
290
     0
176
     1
 90
       50
176
     1
 62
   256
176
     0
 40
1.0
176
     0
 90
        2
176
     1
  1
strokes_ogs.tif
176
     1
290
     0
176
     1
 40
1.0
176
     1
 40
1.0
176
     1
  0
VISUALSTYLE
  5
10030
102
{ACAD_REACTORS
330
1001D
102
}
330
1001D
100
AcDbVisualStyle
  2
X-Ray
 70
    25
177
     3
291
     0
 70
    58
 90
        2
176
     1
 90
        2
176
     1
 90
        1
176
     1
 90
        1
176
     1
 40
0.5
176
     1
 40
30.0
176
     1
 62
     7
420
 16777215
176
     1
 90
        1
176
     1
 90
        0
176
     1
 62
     7
176
     1
 62
   257
176
     1
 90
        1
176
     1
 90
        1
176
     1
 40
1.0
176
     1
 90
        8
176
     1
 62
     7
176
     1
 40
1.0
176
     1
 90
        1
176
     1
 90
        6
176
     1
 90
        2
176
     1
 62
     7
176
     1
 90
        3
176
     1
 90
        0
176
     1
 90
        0
176
     1
290
     0
176
     1
 90
       13
176
     1
 40
0.0
176
     1
 90
        0
176
     1
290
     0
176
     1
290
     1
176
     1
290
     1
176
     1
290
     0
176
     1
290
     0
176
     1
290
     0
176
     1
290
     0
176
     1
290
     0
176
     1
290
     0
176
     1
 90
       50
176
     1
 40
0.0
176
     1
 40
1.0
176
     1
 90
        0
176
     1
 62
    18
176
     1
 90
       50
176
     1
 90
        3
176
     1
 62
     5
420
      255
176
     1
290
     0
176
     1
 90
       50
176
     1
 90
       50
176
     1
 90
       50
176
     1
290
     0
176
     1
 90
       50
176
     1
 62
   256
176
     0
 40
1.0
176
     0
 90
        2
176
     1
  1
strokes_ogs.tif
176
     1
290
     0
176
     1
 40
1.0
176
     1
 40
1.0
176
     1
  0
DICTIONARYVAR
  5
100EA
102
{ACAD_REACTORS
330
100E4
102
}
330
100E4
100
DictionaryVariables
280
     0
  1
1:1
  0
DICTIONARYVAR
  5
100E6
102
{ACAD_REACTORS
330
100E4
102
}
330
100E4
100
DictionaryVariables
280
     0
  1
STANDARD
  0
DICTIONARYVAR
  5
100E5
102
{ACAD_REACTORS
330
100E4
102
}
330
100E4
100
DictionaryVariables
280
     0
  1
STANDARD
  0
DICTIONARYVAR
  5
100E7
102
{ACAD_REACTORS
330
100E4
102
}
330
100E4
100
DictionaryVariables
280
     0
  1
Imperial24
  0
DICTIONARYVAR
  5
100E8
102
{ACAD_REACTORS
330
100E4
102
}
330
100E4
100
DictionaryVariables
280
     0
  1
Imperial24
  0
DICTIONARYVAR
  5
100EC
102
{ACAD_REACTORS
330
100E4
102
}
330
100E4
100
DictionaryVariables
280
     0
  1
1
  0
DICTIONARYVAR
  5
100ED
102
{ACAD_REACTORS
330
100E4
102
}
330
100E4
100
DictionaryVariables
280
     0
  1
15
  0
DICTIONARYVAR
  5
100EB
102
{ACAD_REACTORS
330
100E4
102
}
330
100E4
100
DictionaryVariables
280
     0
  1
0
  0
DICTIONARYVAR
  5
100E9
102
{ACAD_REACTORS
330
100E4
102
}
330
100E4
100
DictionaryVariables
280
     0
  1
0
  0
DICTIONARY
  5
1000E
330
1000D
100
AcDbDictionary
280
     1
281
     1
  3
BUMPTILE
360
10010
  3
DIFFUSETILE
360
1000F
  3
OPACITYTILE
360
10013
  3
REFLECTIONTILE
360
10012
  3
REFRACTIONTILE
360
10014
  3
SPECULARTILE
360
10011
  0
DICTIONARY
  5
10006
330
10005
100
AcDbDictionary
280
     1
281
     1
  3
BUMPTILE
360
10008
  3
DIFFUSETILE
360
10007
  3
OPACITYTILE
360
1000B
  3
REFLECTIONTILE
360
1000A
  3
REFRACTIONTILE
360
1000C
  3
SPECULARTILE
360
10009
  0
DICTIONARY
  5
10016
330
10015
100
AcDbDictionary
280
     1
281
     1
  3
BUMPTILE
360
10018
  3
DIFFUSETILE
360
10017
  3
OPACITYTILE
360
1001B
  3
REFLECTIONTILE
360
1001A
  3
REFRACTIONTILE
360
1001C
  3
SPECULARTILE
360
10019
  0
DICTIONARY
  5
10241
330
10039
100
AcDbDictionary
280
     1
281
     1
  3
ACAD_ROUNDTRIP_2008_TABLESTYLE_CELLSTYLEMAP
360
10500
  0
XRECORD
  5
10010
102
{ACAD_REACTORS
330
1000E
102
}
330
1000E
100
AcDbXrecord
280
     1
270
     1
271
     1
  0
XRECORD
  5
1000F
102
{ACAD_REACTORS
330
1000E
102
}
330
1000E
100
AcDbXrecord
280
     1
270
     1
271
     1
  0
XRECORD
  5
10013
102
{ACAD_REACTORS
330
1000E
102
}
330
1000E
100
AcDbXrecord
280
     1
270
     1
271
     1
  0
XRECORD
  5
10012
102
{ACAD_REACTORS
330
1000E
102
}
330
1000E
100
AcDbXrecord
280
     1
270
     1
271
     1
  0
XRECORD
  5
10014
102
{ACAD_REACTORS
330
1000E
102
}
330
1000E
100
AcDbXrecord
280
     1
270
     1
271
     1
  0
XRECORD
  5
10011
102
{ACAD_REACTORS
330
1000E
102
}
330
1000E
100
AcDbXrecord
280
     1
270
     1
271
     1
  0
XRECORD
  5
10008
102
{ACAD_REACTORS
330
10006
102
}
330
10006
100
AcDbXrecord
280
     1
270
     1
271
     1
  0
XRECORD
  5
10007
102
{ACAD_REACTORS
330
10006
102
}
330
10006
100
AcDbXrecord
280
     1
270
     1
271
     1
  0
XRECORD
  5
1000B
102
{ACAD_REACTORS
330
10006
102
}
330
10006
100
AcDbXrecord
280
     1
270
     1
271
     1
  0
XRECORD
  5
1000A
102
{ACAD_REACTORS
330
10006
102
}
330
10006
100
AcDbXrecord
280
     1
270
     1
271
     1
  0
XRECORD
  5
1000C
102
{ACAD_REACTORS
330
10006
102
}
330
10006
100
AcDbXrecord
280
     1
270
     1
271
     1
  0
XRECORD
  5
10009
102
{ACAD_REACTORS
330
10006
102
}
330
10006
100
AcDbXrecord
280
     1
270
     1
271
     1
  0
XRECORD
  5
10018
102
{ACAD_REACTORS
330
10016
102
}
330
10016
100
AcDbXrecord
280
     1
270
     1
271
     1
  0
XRECORD
  5
10017
102
{ACAD_REACTORS
330
10016
102
}
330
10016
100
AcDbXrecord
280
     1
270
     1
271
     1
  0
XRECORD
  5
1001B
102
{ACAD_REACTORS
330
10016
102
}
330
10016
100
AcDbXrecord
280
     1
270
     1
271
     1
  0
XRECORD
  5
1001A
102
{ACAD_REACTORS
330
10016
102
}
330
10016
100
AcDbXrecord
280
     1
270
     1
271
     1
  0
XRECORD
  5
1001C
102
{ACAD_REACTORS
330
10016
102
}
330
10016
100
AcDbXrecord
280
     1
270
     1
271
     1
  0
XRECORD
  5
10019
102
{ACAD_REACTORS
330
10016
102
}
330
10016
100
AcDbXrecord
280
     1
270
     1
271
     1
  0
CELLSTYLEMAP
  5
10500
102
{ACAD_REACTORS
330
10241
102
}
330
10241
100
AcDbCellStyleMap
 90
        3
300
CELLSTYLE
  1
TABLEFORMAT_BEGIN
 90
        5
170
     1
 91
        0
 92
    32768
 62
   257
 93
        1
300
CONTENTFORMAT
  1
CONTENTFORMAT_BEGIN
 90
        0
 91
        0
 92
      512
 93
        0
300

 40
0.0
140
1.0
 94
        5
 62
     0
340
11
144
0.25
309
CONTENTFORMAT_END
171
     1
301
MARGIN
  1
CELLMARGIN_BEGIN
 40
0.06
 40
0.06
 40
0.06
 40
0.06
 40
0.18
 40
0.18
309
CELLMARGIN_END
 94
        6
 95
        1
302
GRIDFORMAT
  1
GRIDFORMAT_BEGIN
 90
        0
 91
        1
 62
     0
 92
       -2
340
0
 93
        0
 40
0.045
309
GRIDFORMAT_END
 95
        2
302
GRIDFORMAT
  1
GRIDFORMAT_BEGIN
 90
        0
 91
        1
 62
     0
 92
       -2
340
0
 93
        0
 40
0.045
309
GRIDFORMAT_END
 95
        4
302
GRIDFORMAT
  1
GRIDFORMAT_BEGIN
 90
        0
 91
        1
 62
     0
 92
       -2
340
0
 93
        0
 40
0.045
309
GRIDFORMAT_END
 95
        8
302
GRIDFORMAT
  1
GRIDFORMAT_BEGIN
 90
        0
 91
        1
 62
     0
 92
       -2
340
0
 93
        0
 40
0.045
309
GRIDFORMAT_END
 95
       16
302
GRIDFORMAT
  1
GRIDFORMAT_BEGIN
 90
        0
 91
        1
 62
     0
 92
       -2
340
0
 93
        0
 40
0.045
309
GRIDFORMAT_END
 95
       32
302
GRIDFORMAT
  1
GRIDFORMAT_BEGIN
 90
        0
 91
        1
 62
     0
 92
       -2
340
0
 93
        0
 40
0.045
309
GRIDFORMAT_END
309
TABLEFORMAT_END
  1
CELLSTYLE_BEGIN
 90
        1
 91
        1
300
_TITLE
309
CELLSTYLE_END
300
CELLSTYLE
  1
TABLEFORMAT_BEGIN
 90
        5
170
     1
 91
        0
 92
        0
 62
   257
 93
        1
300
CONTENTFORMAT
  1
CONTENTFORMAT_BEGIN
 90
        0
 91
        0
 92
      512
 93
        0
300

 40
0.0
140
1.0
 94
        5
 62
     0
340
11
144
0.18
309
CONTENTFORMAT_END
171
     1
301
MARGIN
  1
CELLMARGIN_BEGIN
 40
0.06
 40
0.06
 40
0.06
 40
0.06
 40
0.18
 40
0.18
309
CELLMARGIN_END
 94
        6
 95
        1
302
GRIDFORMAT
  1
GRIDFORMAT_BEGIN
 90
        0
 91
        1
 62
     0
 92
       -2
340
0
 93
        0
 40
0.045
309
GRIDFORMAT_END
 95
        2
302
GRIDFORMAT
  1
GRIDFORMAT_BEGIN
 90
        0
 91
        1
 62
     0
 92
       -2
340
0
 93
        0
 40
0.045
309
GRIDFORMAT_END
 95
        4
302
GRIDFORMAT
  1
GRIDFORMAT_BEGIN
 90
        0
 91
        1
 62
     0
 92
       -2
340
0
 93
        0
 40
0.045
309
GRIDFORMAT_END
 95
        8
302
GRIDFORMAT
  1
GRIDFORMAT_BEGIN
 90
        0
 91
        1
 62
     0
 92
       -2
340
0
 93
        0
 40
0.045
309
GRIDFORMAT_END
 95
       16
302
GRIDFORMAT
  1
GRIDFORMAT_BEGIN
 90
        0
 91
        1
 62
     0
 92
       -2
340
0
 93
        0
 40
0.045
309
GRIDFORMAT_END
 95
       32
302
GRIDFORMAT
  1
GRIDFORMAT_BEGIN
 90
        0
 91
        1
 62
     0
 92
       -2
340
0
 93
        0
 40
0.045
309
GRIDFORMAT_END
309
TABLEFORMAT_END
  1
CELLSTYLE_BEGIN
 90
        2
 91
        1
300
_HEADER
309
CELLSTYLE_END
300
CELLSTYLE
  1
TABLEFORMAT_BEGIN
 90
        5
170
     1
 91
        0
 92
        0
 62
   257
 93
        1
300
CONTENTFORMAT
  1
CONTENTFORMAT_BEGIN
 90
        0
 91
        0
 92
      512
 93
        0
300

 40
0.0
140
1.0
 94
        2
 62
     0
340
11
144
0.18
309
CONTENTFORMAT_END
171
     1
301
MARGIN
  1
CELLMARGIN_BEGIN
 40
0.06
 40
0.06
 40
0.06
 40
0.06
 40
0.18
 40
0.18
309
CELLMARGIN_END
 94
        6
 95
        1
302
GRIDFORMAT
  1
GRIDFORMAT_BEGIN
 90
        0
 91
        1
 62
     0
 92
       -2
340
0
 93
        0
 40
0.045
309
GRIDFORMAT_END
 95
        2
302
GRIDFORMAT
  1
GRIDFORMAT_BEGIN
 90
        0
 91
        1
 62
     0
 92
       -2
340
0
 93
        0
 40
0.045
309
GRIDFORMAT_END
 95
        4
302
GRIDFORMAT
  1
GRIDFORMAT_BEGIN
 90
        0
 91
        1
 62
     0
 92
       -2
340
0
 93
        0
 40
0.045
309
GRIDFORMAT_END
 95
        8
302
GRIDFORMAT
  1
GRIDFORMAT_BEGIN
 90
        0
 91
        1
 62
     0
 92
       -2
340
0
 93
        0
 40
0.045
309
GRIDFORMAT_END
 95
       16
302
GRIDFORMAT
  1
GRIDFORMAT_BEGIN
 90
        0
 91
        1
 62
     0
 92
       -2
340
0
 93
        0
 40
0.045
309
GRIDFORMAT_END
 95
       32
302
GRIDFORMAT
  1
GRIDFORMAT_BEGIN
 90
        0
 91
        1
 62
     0
 92
       -2
340
0
 93
        0
 40
0.045
309
GRIDFORMAT_END
309
TABLEFORMAT_END
  1
CELLSTYLE_BEGIN
 90
        3
 91
        2
300
_DATA
309
CELLSTYLE_END
  0
ENDSEC
  0
SECTION
  2
ACDSDATA
 70
     2
 71
     8
  0
ACDSSCHEMA
 90
        0
  1
AcDb_Thumbnail_Schema
  2
AcDbDs::ID
280
    10
 91
        8
  2
Thumbnail_Data
280
    15
 91
        0
101
ACDSRECORD
 95
        0
 90
        1
  2
AcDbDs::TreatedAsObjectData
280
     1
291
     1
101
ACDSRECORD
 95
        0
 90
        2
  2
AcDbDs::Legacy
280
     1
291
     1
101
ACDSRECORD
  1
AcDbDs::ID
 90
        3
  2
AcDs:Indexable
280
     1
291
     1
101
ACDSRECORD
  1
AcDbDs::ID
 90
        4
  2
AcDbDs::HandleAttribute
280
     7
282
     1
  0
ACDSSCHEMA
 90
        1
  1
AcDbDs::TreatedAsObjectDataSchema
  2
AcDbDs::TreatedAsObjectData
280
     1
 91
        0
  0
ACDSSCHEMA
 90
        2
  1
AcDbDs::LegacySchema
  2
AcDbDs::Legacy
280
     1
 91
        0
  0
ACDSSCHEMA
 90
        3
  1
AcDbDs::IndexedPropertySchema
  2
AcDs:Indexable
280
     1
 91
        0
  0
ACDSSCHEMA
 90
        4
  1
AcDbDs::HandleAttributeSchema
  2
AcDbDs::HandleAttribute
280
     7
 91
        1
284
     1
  0
ACDSRECORD
 90
        0
  2
AcDbDs::ID
280
    10
320
10055
  2
Thumbnail_Data
280
    15
 94
     1555
310
89504E470D0A1A0A0000000D49484452000001000000006C0803000000B2ED9CC100000300504C5445212830FFFFFF2128300000000000000000000000000000000000000000000000000000330000660000990000CC0000FF0033000033330033660033990033CC0033FF0066000066330066660066990066CC0066FF0099
310
000099330099660099990099CC0099FF00CC0000CC3300CC6600CC9900CCCC00CCFF00FF0000FF3300FF6600FF9900FFCC00FFFF3300003300333300663300993300CC3300FF3333003333333333663333993333CC3333FF3366003366333366663366993366CC3366FF3399003399333399663399993399CC3399FF33CC00
310
33CC3333CC6633CC9933CCCC33CCFF33FF0033FF3333FF6633FF9933FFCC33FFFF6600006600336600666600996600CC6600FF6633006633336633666633996633CC6633FF6666006666336666666666996666CC6666FF6699006699336699666699996699CC6699FF66CC0066CC3366CC6666CC9966CCCC66CCFF66FF0066
310
FF3366FF6666FF9966FFCC66FFFF9900009900339900669900999900CC9900FF9933009933339933669933999933CC9933FF9966009966339966669966999966CC9966FF9999009999339999669999999999CC9999FF99CC0099CC3399CC6699CC9999CCCC99CCFF99FF0099FF3399FF6699FF9999FFCC99FFFFCC0000CC00
310
33CC0066CC0099CC00CCCC00FFCC3300CC3333CC3366CC3399CC33CCCC33FFCC6600CC6633CC6666CC6699CC66CCCC66FFCC9900CC9933CC9966CC9999CC99CCCC99FFCCCC00CCCC33CCCC66CCCC99CCCCCCCCCCFFCCFF00CCFF33CCFF66CCFF99CCFFCCCCFFFFFF0000FF0033FF0066FF0099FF00CCFF00FFFF3300FF3333
310
FF3366FF3399FF33CCFF33FFFF6600FF6633FF6666FF6699FF66CCFF66FFFF9900FF9933FF9966FF9999FF99CCFF99FFFFCC00FFCC33FFCC66FFCC99FFCCCCFFCCFFFFFF00FFFF33FFFF66FFFF99FFFFCCFFFFFF0000000D0D0D1A1A1A2828283535354343435050505D5D5D6B6B6B787878868686939393A1A1A1AEAEAEBB
310
BBBBC9C9C9D6D6D6E4E4E4F1F1F1FFFFFF0000000000000000000000000000000000000000000000000000000000002E4550F1000002CE4944415478DAED5B5B72A4300CD4FDEFDBFF5BD9C120597EB29B1ACBEEFEC8A07420C8D61B468420088220088220088220088220088220088220887F048EFAB7EE367E60EE0A5217
310
CDDFBA930B1793AA08C92EF6B50590EB3E9034288910CFFED520E3B5FC1160CF7E56E1E2BE6FFFB8EE3CDD6E3AB894F9FCF86CFE7DF4C869551E391D5ECAA663E845C173E9257CC07D88D97AE8DFA6937A9FD670349B5F6C8D4510BB5BCAA7956058B5F36A29B55AC805B3946B25021B0AE431D0DB091C6B65315B2EB7EBDC
310
9E20D6F9D7D2DFC564B8CDB3D1DDAAD0968BEC6AFAE7F92E931D9BA9D0964BEC7AC5904B70CE20AAAC3620154B46D9755CC0A42C580B68B136D7E91C586481E542E01DB84CCA6AB3289D2D2A450CB34B7941B9E2EDB3E2D2E10CBB981DD4EFAFCD9A7438CDAE140BF18EF5096F865D351DCEB03EE1CDB06B1644AE1BEEEC60
310
BEC76870CB06813CE39B9217E81A90297AF3023AC07408B6ED412EF59B2AD5F6C0B64C400813A837C95D1FCE327EDEFA05D0FFDEC054FE993109C6CF7E461F7A4C1206F003114C9DFD34D3B26AED3B930E67C357BB1B3C6001C42D80C45B00EB022F1600AFCF5EA51ED041109837201504232E8029842683586D581CD2075E
310
D9B08EFB315D60ACFF1DA88A1055F7A1FEB75F56C7DDFC97F92F5EFFFBDB0B20D117C00FC087C5F80EE0C603F90302418B45C802A03C1E508FB4AD8C061BB4006836F8527DD25D2E7CC2EB6F1AFCD29B10D2794F6213D4DF854193DD0790D9C7BF7BE92FD93CD44FBF5BEC1E3E20ADF978E1F592DD16204F70F6E939F64B7F
310
A3E9B0CC6E17027C3AACB35BA5BF463A9C66770B869BB6BF43EDE1CEEDEF6C7FEC840316A0D806BE9C9EC78C82E541402139EEEB02F62B00CA30F6F7005DF898B7A1718AEABADDA9BD0D7D8809447FFEFD5F6C60DFF677784282530D00661676A205E40580881C68049075BE00F9AD11C1B9DAA742F864FD09822008822008
310
82200882200882F835FC012F72101E30D17E480000000049454E44AE426082
  0
ENDSEC
  0
EOF
